BitTorrentTracker PerecTracker.org
BitTorrentTracker PerecTracker.org
    
Регистрация  ·  Вход
 
 · 
Забыли пароль?

  • Падения и взлёты / Bankable (Мона Ашаш / Mona Achache) [2011, Франция, комедия, драма, DVB] Original (Fre) + Sub (Rus, Eng, Fre, Deu)

    Ответить на тему
     
    Автор Сообщение

    rechyn

    Создавать темы 24-Фев-2016 11:41

           

    [Цитировать]

    Падения и взлёты
    Bankable-Страна: Франция
    Жанр: комедия, драма
    Год выпуска: 2011
    Продолжительность: 01:26:07Перевод: Субтитры (перевод М.Лабори, Éclair Group)
    Cубтитры: русские, английские, французские, немецкие, нидерландские, румынские
    Оригинальная аудиодорожка: французский
    Режиссер: Мона Ашаш / Mona Achache
    В ролях: Паскаль Арбийо / Pascale Arbillot (Barbara Deville), Лолита Шамма / Lolita Chammah (Leslie Ricci), Бруно Тодескини / Bruno Todeschini (Philippe Deville), Оливье Бартелеми / Olivier Barthelemy (Nicolas Ricci), Марианн Деникур / Marianne Denicourt (Sophie Brun), Мишлен Прель / Micheline Presle (Granny)
    Описание: Девили богаты, но вмиг станут бедными. Риччи бедны, но разбогатеют. Они не имеют ничего общего, кроме беспристрастного банкира Мерлина… Сюжетные линии из жизни двух семей переплетаются в этой забавной французской комедии. Лесли Риччи работает в салоне красоты, а ее муж Николя – механиком. Пара уже много лет находится в долгах, и Лесли устала от этой ущербной жизни. Она решает разыграть свою последнюю карту – открыть собственный бизнес через интернет. Получив отказ в займе на стартовый капитал от банка, она втайне от сестры продает драгоценности покойной матери… Ее бизнес имеет успех, но ставит под угрозу семейную жизнь… В это время финансовый консультант Филипп Девиль из-за финансового кризиса теряет работу, и они вместе с женой уже не могут позволить себе вести расточительный образ жизни, как раньше…
    Доп. информация: Hot Bird (13.0°E) TV5MONDE Europe DVB-S
    Награды: 2 награды Luchon International Film Festival 2012 (лучшая актриса - Pascale Arbillot, лучшая музыка).

    Качество видео: DVB
    Формат видео: TS
    Видео: MPEG Video 2, 720x576@1024x576 (16:9), 25 fps, ~3274 kbps avg, 0.316 bit/pixel
    Аудио: MPEG Audio 2, 2 ch, 48 kHz, 192 kbps - французский
    Формат субтитров: PGS

    MediaInfo

    ОбщееИдентификатор : 1 (0x1)Полное имя : F:\My Torrents 3\[apreder]Bankable(2011)DVB.tsФормат : MPEG-TSРазмер файла : 2,19 ГбайтПродолжительность : 1 ч. 26 м.Режим общего битрейта : ПеременныйОбщий поток : 3649 Кбит/секМаксимальный общий битрейт : 35,5 Мбит/сек
    ВидеоИдентификатор : 4113 (0x1011)Идентификатор меню : 1 (0x1)Формат : MPEG VideoВерсия формата : Version 2Профиль формата : Main@MainПараметр BVOP формата : ДаПараметр матрицы формата : ВыборочнаяПараметр GOP формата : VariableFormat_Settings_PictureStructure : FrameИдентификатор кодека : 2Продолжительность : 1 ч. 26 м.Вид битрейта : ПеременныйБитрейт : 3274 Кбит/секШирина : 720 пикселейВысота : 576 пикселейСоотношение сторон : 16:9Частота кадров : 25,000 кадров/секСтандарт вещания : PALЦветовое пространство : YUVСубдискретизация насыщенности : 4:2:0Битовая глубина : 8 битТип развёртки : ЧересстрочнаяПорядок развёртки : Верхнее поле первоеМетод сжатия : С потерямиБит/(Пиксели*Кадры) : 0.316Временной код первого кадра : 00:00:00:00Оригинал временного кода : Group of pictures headerРазмер потока : 1,97 Гбайт (90%)
    АудиоИдентификатор : 4352 (0x1100)Идентификатор меню : 1 (0x1)Формат : MPEG AudioВерсия формата : Version 1Профиль формата : Layer 2Режим : Joint stereoРасширение режима : Intensity Stereo + MS StereoИдентификатор кодека : 4Продолжительность : 1 ч. 26 м.Вид битрейта : ПостоянныйБитрейт : 192 Кбит/секКаналы : 2 каналаЧастота : 48,0 КГцМетод сжатия : С потерямиРазмер потока : 118 Мбайт (5%)Язык : French
    Текст #1Идентификатор : 4608 (0x1200)Идентификатор меню : 1 (0x1)Формат : PGSИдентификатор кодека : 144Продолжительность : 1 ч. 26 м.Задержка видео : 5 с. 840 мс.Язык : Russian
    Текст #2Идентификатор : 4609 (0x1201)Идентификатор меню : 1 (0x1)Формат : PGSИдентификатор кодека : 144Продолжительность : 1 ч. 26 м.Задержка видео : 5 с. 840 мс.Язык : English
    Текст #3Идентификатор : 4610 (0x1202)Идентификатор меню : 1 (0x1)Формат : PGSИдентификатор кодека : 144Продолжительность : 1 ч. 26 м.Задержка видео : 5 с. 720 мс.Язык : French
    Текст #4Идентификатор : 4611 (0x1203)Идентификатор меню : 1 (0x1)Формат : PGSИдентификатор кодека : 144Продолжительность : 1 ч. 26 м.Задержка видео : 5 с. 840 мс.Язык : German
    Текст #5Идентификатор : 4612 (0x1204)Идентификатор меню : 1 (0x1)Формат : PGSИдентификатор кодека : 144Продолжительность : 1 ч. 26 м.Задержка видео : 5 с. 840 мс.Язык : Dutch
    Текст #6Идентификатор : 4613 (0x1205)Идентификатор меню : 1 (0x1)Формат : PGSИдентификатор кодека : 144Продолжительность : 1 ч. 25 м.Задержка видео : 6 с. 240 мс.Язык : Romanian

    Скриншот c названием фильма

    Скриншоты

    Резервные скриншоты


    -[964]
    Скачать .torrent

    Скачать торрент-файл бесплатно и на максимальной скорости!

    Как скачивать? · Что такое торрент? · Рейтинг и ограничения

    !ВНИМАНИЕ!
    Сайт не распространяет и не хранит электронные версии произведений, а занимается лишь лишь предоставлением доступа к создаваемому пользователями каталогу ссылок на торрент-файлы, которые содержат только списки хеш-сумм, убедительная просьба с жалобами обращаться напрямую к пользователю. Файлы для обмена на трекере предоставлены пользователями сайта, и администрация не несёт ответственности за их содержание. Просьба не заливать файлы, защищенные авторскими правами, а также файлы нелегального содержания!


    _________________
    [Профиль] [ЛС]
    Показать сообщения:    
    Ответить на тему

    Текущее время: Сегодня, в 08:57

    Часовой пояс: GMT + 2



    Вы не можете начинать темы
    Вы не можете отвечать на сообщения
    Вы не можете редактировать свои сообщения
    Вы не можете удалять свои сообщения
    Вы не можете голосовать в опросах
    Вы не можете прикреплять файлы к сообщениям
    Вы не можете скачивать файлы