BitTorrentTracker PerecTracker.org
BitTorrentTracker PerecTracker.org
    
Регистрация  ·  Вход
 
 · 
Забыли пароль?

  • Не верю, я – робот?! / OMG, I\'m a Robot! (Таль Гольдберг / Tal Goldberg, Галь Железняк / Gal Zelezniak) [2015, Израиль, Фантастика, боевик, комедия, HDTVRip] VO (Павел Морозов aka PashaUp)

    Ответить на тему
     
    Автор Сообщение

    rechyn

    Создавать темы 24-Фев-2016 11:41

           

    [Цитировать]

    Не верю, я – робот?! / OMG, I'm a Robot!
    Страна: Израиль
    Жанр: Фантастика, боевик, комедия
    Год выпуска: 2015
    Продолжительность: 01:15:06
    Перевод: Одноголосый закадровый Павел Морозов aka PashaUp
    Cубтитры: иврит
    Оригинальная аудиодорожка: нет
    Режиссер: Таль Гольдберг, Галь Железняк / Tal Goldberg, Gal Zelezniak
    В ролях: Йотам Ишай, Хили Ялон, Цахи Град, Дрор Керен, Инна Бекельман, Роб Шнайдер, Нели Тагар, Давид Киглер, Ори Янив, Йосси Маршек
    Описание: Дани, инфантильный молодой человек, тяжело переживая уход подруги, решает покончить с собой, но внезапно обнаруживает, что он - робот...-- --Качество видео: HDTVRip
    Формат видео: AVI
    Видео: XviD, 624х352, 25,000 кадров/сек, 1163 Кбит/сек
    Аудио: MP3, 48,0 КГц, 192 Кбит/сек, 2 канала
    Формат субтитров: hardsub (неотключаемые)

    MediaInfo

    Общее
    Формат                                   : AVI
    Формат/Информация                        : Audio Video Interleave
    Размер файла                             : 733 Мбайт
    Продолжительность                        : 1 ч. 15 м.
    Общий поток                              : 1365 Кбит/сек
    Программа кодирования                    : VirtualDubMod 1.5.10.2 (build 2540/release)
    Библиотека кодирования                   : VirtualDubMod build 2540/release
    Видео
    Идентификатор                            : 0
    Формат                                   : MPEG-4 Visual
    Профиль формата                          : Advanced Simple@L5
    Параметр BVOP формата                    : 2
    Параметр QPel формата                    : Нет
    Параметр GMC формата                     : Без точки перехода
    Параметр матрицы формата                 : Default (H.263)
    Идентификатор кодека                     : XVID
    Идентификатор кодека/Подсказка           : XviD
    Продолжительность                        : 1 ч. 15 м.
    Битрейт                                  : 1163 Кбит/сек
    Ширина                                   : 624 пикселя
    Высота                                   : 352 пикселя
    Соотношение сторон                       : 16:9
    Частота кадров                           : 25,000 кадров/сек
    Цветовое пространство                    : YUV
    Субдискретизация насыщенности            : 4:2:0
    Битовая глубина                          : 8 бит
    Тип развёртки                            : Чересстрочная
    Порядок развёртки                        : Нижнее поле первое
    Метод сжатия                             : С потерями
    Бит/(Пиксели*Кадры)                      : 0.212
    Размер потока                            : 625 Мбайт (85%)
    Библиотека кодирования                   : XviD 64
    Аудио
    Идентификатор                            : 1
    Формат                                   : MPEG Audio
    Версия формата                           : Version 1
    Профиль формата                          : Layer 3
    Режим                                    : Joint stereo
    Расширение режима                        : MS Stereo
    Идентификатор кодека                     : 55
    Идентификатор кодека/Подсказка           : MP3
    Продолжительность                        : 1 ч. 15 м.
    Вид битрейта                             : Постоянный
    Битрейт                                  : 192 Кбит/сек
    Каналы                                   : 2 канала
    Частота                                  : 48,0 КГц
    Метод сжатия                             : С потерями
    Размер потока                            : 103 Мбайт (14%)
    Выравнивание                             : Соединение по промежуткам
    Продолжительность промежутка             : 40  мс. (1,00 видеокадр)
    Время предзагрузки промежутка            : 504  мс.

    Скриншот c названием фильма

    Скриншоты

    Скачать .torrent

    Скачать торрент-файл бесплатно и на максимальной скорости!

    Как скачивать? · Что такое торрент? · Рейтинг и ограничения

    !ВНИМАНИЕ!
    Сайт не распространяет и не хранит электронные версии произведений, а занимается лишь лишь предоставлением доступа к создаваемому пользователями каталогу ссылок на торрент-файлы, которые содержат только списки хеш-сумм, убедительная просьба с жалобами обращаться напрямую к пользователю. Файлы для обмена на трекере предоставлены пользователями сайта, и администрация не несёт ответственности за их содержание. Просьба не заливать файлы, защищенные авторскими правами, а также файлы нелегального содержания!


    _________________
    [Профиль] [ЛС]
    Показать сообщения:    
    Ответить на тему

    Текущее время: Сегодня, в 10:51

    Часовой пояс: GMT + 2



    Вы не можете начинать темы
    Вы не можете отвечать на сообщения
    Вы не можете редактировать свои сообщения
    Вы не можете удалять свои сообщения
    Вы не можете голосовать в опросах
    Вы не можете прикреплять файлы к сообщениям
    Вы не можете скачивать файлы