BitTorrentTracker PerecTracker.org
BitTorrentTracker PerecTracker.org
    
Регистрация  ·  Вход
 
 · 
Забыли пароль?

  • Телохранитель / Maryland (Алис Винокур / Alice Winocour ) [2015, Франция, Бельгия , Триллер, драма, WEB-DL, HD (720p)] MVO

    Ответить на тему
     
    Автор Сообщение

    Flirldrerve

    Создавать темы 24-Фев-2016 03:16

           

    [Цитировать]

    Телохранитель / Maryland
    -
    5.531 / 10 6.20 / 10
    -Год выпуска: 2015
    Страна: Франция, Бельгия
    Жанр: Триллер, драма
    Продолжительность: 01:37:57
    Перевод: Многоголосый закадровый (iTunes)
    Оригинальная аудиодорожка: Нет
    Cубтитры: Нет
    Режиссёр: Алис Винокур
    Сценарий: Алис Винокур, Жан-Стефан Брон, Робин Кампилло
    Продюсер: Эмили Тине, Женевьева Лемаль, Изабель Мадлен
    Оператор: Жорж Лешаптуа
    Композитор: Mike Lévy
    Художник: Сэмюэл Деор, Паскалин Шаванн
    Монтаж: Жюльен Лашери
    В ролях: Маттиас Шонартс, Дайан Крюгер, Поль Ами, Zaïd Errougui-Demonsant, Перси Кемп, Виктор Понтекорво, Майкл Даубер, Франк Торресильяс, Чемс Эддин, Филипп Хаддад
    Сборы в России: $15 795
    Мировая премьера: 16 мая 2015
    Премьера (РФ): 14 января 2016, «Премиум Фильм»
    Описание: Винсент нанимается телохранителем к жене очень богатого человека. Его неодолимо влечет к ней, и первоначальная антипатия перерастает в любовь. Сможет ли он спасти любимую?-Качество исходника: WEB-DL 720p (HDClub)
    Качество: WEB-DL
    Тип: HD (720p)
    Контейнер: M4V
    Видео: H.264, 1280x692, 1.85:1, 3 951 Kbps, 24.000 fps
    Аудио 1: Русский/Многоголосый закадровый (iTunes), AAC / 2.0 / 157 Kbps / 48.0 KHz
    Аудио 2: Русский/Многоголосый закадровый (iTunes), AC-3 / 5.1 / 384 Kbps / 48.0 KHz
    -

    iTunes Meta Tags

    Sort Name: Maryland
    XID: Apple:vendor_id:2015-843791
    contentID: 1053544779
    Screenwriters: Алис Винокур, Жан-Стефан Брон, Робин Кампилло
    Producers: Эмили Тине, Женевьева Лемаль, Изабель Мадлен
    Director: Алис Винокур
    Cast: Маттиас Шонартс, Дайан Крюгер, Поль Ами, Zaïd Errougui-Demonsant, Перси Кемп, Виктор Понтекорво, Майкл Даубер, Франк Торресильяс, Чемс Эддин, Филипп Хаддад
    Studio: Darius Films / Dharamsala / France 3 Cinema / Scope Pictures
    Rating: 60
    Long Description: Винсент нанимается телохранителем к жене очень богатого человека. Его неодолимо влечет к ней, и первоначальная антипатия перерастает в любовь. Сможет ли он спасти любимую?
    Description: Винсент нанимается телохранителем к жене очень богатого человека. Его неодолимо влечет к ней, и первоначальная антипатия перерастает в любовь. Сможет ли он спасти любимую?
    Release Date: 2015-05-16T08:00:00Z
    Genre: Drame
    Artist: Alice Winocour
    Name: Maryland

    MediaInfo

    General
    Complete name : /Users/imac/HandBrake/Maryland.720p.WEB-DL.m4v
    Format : MPEG-4
    Codec ID : M4V  (M4V /M4A /mp42/isom)
    File size : 3.08 GiB
    Duration : 1h 37mn
    Overall bit rate mode : Variable
    Overall bit rate : 4 499 Kbps
    Movie name : Maryland
    Performer : Alice Winocour
    Director : Алис Винокур
    Actor : Маттиас Шонартс / Дайан Крюгер / Поль Ами / Zaïd Errougui-Demonsant / Перси Кемп / Виктор Понтекорво / Майкл Даубер / Франк Торресильяс / Чемс Эддин / Филипп Хаддад
    Screenplay by : Алис Винокур / Жан-Стефан Брон / Робин Кампилло
    Producer : Эмили Тине / Женевьева Лемаль / Изабель Мадлен
    Production studio : Darius Films / Dharamsala / France 3 Cinema / Scope Pictures
    Genre : Drame
    ContentType : Short Film
    Description : Винсент нанимается телохранителем к жене очень богатого человека. Его неодолимо влечет к ней, и первоначальная антипатия перерастает в любовь. Сможет ли он спасти любимую?
    Recorded date : UTC 2015-05-16 08:00:00
    Encoded date : UTC 2016-02-23 21:04:13
    Tagged date : UTC 2016-02-23 21:06:22
    Cover : Yes
    Rating : None
    Title/Sort : Maryland
    LongDescription : Винсент нанимается телохранителем к жене очень богатого человека. Его неодолимо влечет к ней, и первоначальная антипатия перерастает в любовь. Сможет ли он спасти любимую?
    HDVideo : Yes
    AppleStoreCatalogID : 1053544779
    Vendor : Apple:vendor_id:2015-843791
    ContentRating : fr-movie|Tout public|000|
    Video #1
    ID : 1
    Format : AVC
    Format/Info : Advanced Video Codec
    Format profile : High@L3.1
    Format settings, CABAC : No
    Format settings, ReFrames : 2 frames
    Format settings, GOP : M=2, N=90
    Codec ID : avc1
    Codec ID/Info : Advanced Video Coding
    Duration : 1h 37mn
    Bit rate : 3 951 Kbps
    Width : 1 280 pixels
    Height : 692 pixels
    Display aspect ratio : 1.85:1
    Frame rate mode : Variable
    Frame rate : 24.000 fps
    Minimum frame rate : 23.810 fps
    Maximum frame rate : 24.390 fps
    Color space : YUV
    Chroma subsampling : 4:2:0
    Bit depth : 8 bits
    Scan type : Progressive
    Bits/(Pixel*Frame) : 0.186
    Stream size : 2.70 GiB (88%)
    Title : Main Program
    Language : French
    Encoded date : UTC 2016-02-23 21:04:13
    Tagged date : UTC 2016-02-23 21:05:24
    Color range : Limited
    Color primaries : BT.709
    Transfer characteristics : BT.709
    Matrix coefficients : BT.709
    Menus : 4,5
    Video #2
    ID : 5
    Format : JPEG
    Codec ID : jpeg
    Duration : 1h 37mn
    Bit rate mode : Variable
    Bit rate : 1 053 bps
    Width : 640 pixels
    Height : 346 pixels
    Display aspect ratio : 1.85:1
    Frame rate mode : Variable
    Frame rate : 0.003 fps
    Minimum frame rate : 0.002 fps
    Maximum frame rate : 0.003 fps
    Color space : YUV
    Chroma subsampling : 4:2:0
    Bit depth : 8 bits
    Compression mode : Lossy
    Bits/(Pixel*Frame) : 1.585
    Stream size : 686 KiB (0%)
    Title : Chapter Images
    Language : French
    Default : No
    Encoded date : UTC 2016-02-23 21:05:28
    Tagged date : UTC 2016-02-23 21:05:28
    Menu For : 1
    Audio #1
    ID : 2
    Format : AAC
    Format/Info : Advanced Audio Codec
    Format profile : LC
    Codec ID : 40
    Duration : 1h 37mn
    Bit rate mode : Variable
    Bit rate : 157 Kbps
    Maximum bit rate : 252 Kbps
    Channel(s) : 2 channels
    Channel positions : Front: L R
    Sampling rate : 48.0 KHz
    Frame rate : 46.875 fps (1024 spf)
    Compression mode : Lossy
    Stream size : 110 MiB (3%)
    Title : Russian Stereo
    Language : Russian
    Default : Yes
    Alternate group : 1
    Encoded date : UTC 2016-02-23 21:04:13
    Tagged date : UTC 2016-02-23 21:04:17
    Fallback From : 3
    Audio #2
    ID : 3
    Format : AC-3
    Format/Info : Audio Coding 3
    Mode extension : CM (complete main)
    Format settings, Endianness : Big
    Codec ID : ac-3
    Duration : 1h 37mn
    Bit rate mode : Constant
    Bit rate : 384 Kbps
    Channel(s) : 6 channels
    Channel positions : Front: L C R, Side: L R, LFE
    Sampling rate : 48.0 KHz
    Frame rate : 31.250 fps (1536 spf)
    Bit depth : 16 bits
    Compression mode : Lossy
    Stream size : 269 MiB (9%)
    Title : Russian DD 5.1
    Language : Russian
    Default : Inherited From: 2
    Alternate group : 1
    Encoded date : UTC 2016-02-23 21:04:13
    Tagged date : UTC 2016-02-23 21:05:24
    Fallback To : 2
    Menu #1
    00:00:00.000 : 1
    00:06:03.500 : 2
    00:11:51.125 : 3
    00:17:42.333 : 4
    00:23:24.208 : 5
    00:28:55.083 : 6
    00:34:44.374 : 7
    00:40:09.290 : 8
    00:45:14.123 : 9
    00:51:20.831 : 10
    00:57:32.331 : 11
    01:03:46.497 : 12
    01:09:45.080 : 13
    01:15:11.205 : 14
    01:22:31.121 : 15
    01:28:32.037 : 16
    Menu #2
    ID : 4
    Codec ID : text
    Duration : 1h 37mn
    Language : French
    Encoded date : UTC 2016-02-23 21:05:24
    Tagged date : UTC 2016-02-23 21:05:24
    Menu For : 1
    00:00:00.000 : 1
    00:06:03.500 : 2
    00:11:51.125 : 3
    00:17:42.333 : 4
    00:23:24.208 : 5
    00:28:55.083 : 6
    00:34:44.374 : 7
    00:40:09.290 : 8
    00:45:14.123 : 9
    00:51:20.831 : 10
    00:57:32.331 : 11
    01:03:46.497 : 12
    01:09:45.080 : 13
    01:15:11.205 : 14
    01:22:31.121 : 15
    01:28:32.037 : 16
    Bit rate mode : VBR

    Скриншоты

    -

    Релиз подготовлен для просмотра на Apple TV, iPad, iPhone, iPod Touch.
    Для просмотра данного релиза на компьютере с ОС Windows рекомендуется использовать VLC media player
    Скачать .torrent

    Скачать торрент-файл бесплатно и на максимальной скорости!

    Как скачивать? · Что такое торрент? · Рейтинг и ограничения

    !ВНИМАНИЕ!
    Сайт не распространяет и не хранит электронные версии произведений, а занимается лишь лишь предоставлением доступа к создаваемому пользователями каталогу ссылок на торрент-файлы, которые содержат только списки хеш-сумм, убедительная просьба с жалобами обращаться напрямую к пользователю. Файлы для обмена на трекере предоставлены пользователями сайта, и администрация не несёт ответственности за их содержание. Просьба не заливать файлы, защищенные авторскими правами, а также файлы нелегального содержания!


    _________________
    [Профиль] [ЛС]
    Показать сообщения:    
    Ответить на тему

    Текущее время: Сегодня, в 05:53

    Часовой пояс: GMT + 2



    Вы не можете начинать темы
    Вы не можете отвечать на сообщения
    Вы не можете редактировать свои сообщения
    Вы не можете удалять свои сообщения
    Вы не можете голосовать в опросах
    Вы не можете прикреплять файлы к сообщениям
    Вы не можете скачивать файлы