BitTorrentTracker PerecTracker.org
BitTorrentTracker PerecTracker.org
    
Регистрация  ·  Вход
 
 · 
Забыли пароль?

  • Мстители: Эра Альтрона / Avengers: Age of Ultron (Джосс Уидон / Joss Whedon) [2015, США, фантастика, боевик, приключения, BDRip 720p] Dub + AVO + Sub Rus, Eng, Ukr + Original Eng

    Ответить на тему
     
    Автор Сообщение

    Flirldrerve

    Создавать темы 24-Фев-2016 03:16

           

    [Цитировать]

    Мстители: Эра Альтрона / Avengers: Age of Ultron
    Страна: США
    Жанр: фантастика, боевик, приключения
    Год выпуска: 2015
    Продолжительность: 02:21:18
    Перевод: Профессиональный (дублированный)
    Перевод: Авторский (одноголосый закадровый) А. Гаврилов:
    Cубтитры: Russian (Forced, iTunes), Russian (iTunes), Ukrainian (iTunes), English (Forced, iTunes), English (iTunes)
    Оригинальная аудиодорожка: английский-Режиссер: Джосс Уидон / Joss Whedon-В ролях: Роберт Дауни мл., Крис Хемсворт, Крис Эванс, Скарлетт Йоханссон, Марк Руффало, Джереми Реннер, Аарон Тейлор-Джонсон, Элизабет Олсен, Джеймс Спэйдер, Сэмюэл Л. Джексон.-Описание: Человечество на грани уничтожения. На этот раз людям угрожает Альтрон — искусственный интеллект, ранее созданный для того, чтобы защищать Землю от любых угроз. Однако, главной угрозой он посчитал человечество. Международная организация Щ.И.Т. распалась, и теперь мир не способен справиться с таким мощным врагом, потому люди вновь обращаются за помощью к Величайшим Героям Земли — Мстител
    ям. Однако Альтрон слишком силен, и есть большая вероятность, что даже им не удастся остановить начало надвигающейся Эры Альтрона, где нет места для людей.-Релиз от: -Рип от EbP!-Качество видео: BDRip | Sample
    Формат видео: MKV
    Видео: 1280x536 at 23.976 fps, x264@L4.1, crf, ~6031 kbps avg
    Аудио 1: Russian: 48 kHz, AC3, 3/2 (L,C,R,l,r) + LFE ch, ~640.00 kbps avg |Дубляж, Blu-ray CEE|
    Аудио 2: Russian: 48 kHz, AC3, 3/2 (L,C,R,l,r) + LFE ch, ~640.00 kbps avg |А. Гаврилов|
    Аудио 3: Ukrainian: 48 kHz, DTS, 3/2 (L,C,R,l,r) + LFE ch, ~1536.00 kbps avg |Дубляж|
    Аудио 4: English: 48 kHz, DTS, 3/2 (L,C,R,l,r) + LFE ch, ~1536.00 kbps avg
    Аудио 5: English: 48 kHz, AC3, 2/0 (L,R) ch, ~192.00 kbps avg |Audio Commentary With Director Joss Whedon|
    Аудио 6: English: 48 kHz, AC3, 2/0 (L,R) ch, ~320.00 kbps avg |Descriptive|-Дополнительно
    Цитата:
    Цитата:

    • Сохранены оригинальные чаптеры как на Blu-ray.

    MediaInfo

    Format                      : Matroska
    Format version              : Version 2
    File size                   : 10.8 GiB
    Duration                    : 2h 21mn
    Overall bit rate            : 10.9 Mbps
    Movie name                  : Avengers: Age of Ultron (2015) - Release for HDCLUB
    Encoded date                : UTC 2016-02-23 12:33:05
    Writing application         : mkvmerge v5.0.1 ('Es ist Sommer') built on Oct  9 2011 11:55:43
    Writing library             : libebml v1.2.2 + libmatroska v1.3.0
    Attachements                : Cover.png
    Video
    ID                          : 1
    Format                      : AVC
    Format/Info                 : Advanced Video Codec
    Format profile              : High@L4.1
    Format settings, CABAC      : Yes
    Format settings, ReFrames   : 12 frames
    Codec ID                    : V_MPEG4/ISO/AVC
    Duration                    : 2h 21mn
    Bit rate                    : 5 916 Kbps
    Width                       : 1 280 pixels
    Height                      : 536 pixels
    Display aspect ratio        : 2.40:1
    Frame rate mode             : Constant
    Frame rate                  : 23.976 (24000/1001) fps
    Color space                 : YUV
    Chroma subsampling          : 4:2:0
    Bit depth                   : 8 bits
    Scan type                   : Progressive
    Bits/(Pixel*Frame)          : 0.360
    Stream size                 : 5.85 GiB (54%)
    Title                       : Avengers: Age of Ultron (2015) - Release for HDCLUB
    Writing library             : x264 core 142 r2431+42 c69a006 tMod [8-bit@4:2:0 X86_64]
    Encoding settings           : cabac=1 / ref=12 / deblock=1:-3:-3 / analyse=0x3:0x133 / me=umh / subme=11 / psy=1 / fade_compensate=0.00 / psy_rd=1.05:0.00 / mixed_ref=1 / me_range=32 / chroma_me=1 / trellis=2 / 8x8dct=1 / cqm=0 / deadzone=21,11 / fast_pskip=0 / chroma_qp_offset=-2 / threads=12 / lookahead_threads=2 / sliced_threads=0 / nr=0 / decimate=0 / interlaced=0 / bluray_compat=0 / constrained_intra=0 / fgo=0 / bframes=8 / b_pyramid=2 / b_adapt=2 / b_bias=0 / direct=3 / weightb=1 / open_gop=0 / weightp=2 / keyint=250 / keyint_min=23 / scenecut=40 / intra_refresh=0 / rc_lookahead=60 / rc=crf / mbtree=0 / crf=15.4000 / qcomp=0.70 / qpmin=0:0:0 / qpmax=69:69:69 / qpstep=4 / vbv_maxrate=62500 / vbv_bufsize=78125 / crf_max=0.0 / nal_hrd=none / filler=0 / ip_ratio=1.30 / pb_ratio=1.20 / aq=3:0.82 / aq-sensitivity=10.00 / aq-factor=1.00:1.00:1.00 / aq2=0 / aq3=0 / zones=515,686,crf=12/789,987,crf=13.5/8770,8814,crf=12.5/15149,15515,crf=12.5/17299,17306,crf=13.5/57517,57627,crf=12.5/82419,82426,crf=13.5/82591,82633,crf=12/82837,82974,crf=13/83154,83401,crf=11.5/84792,84828,crf=11/84939,84967,crf=12.5/108820,109268,crf=13/109374,109688,crf=12.5/114078,114178,crf=11/114209,114390,crf=11/143231,143260,crf=12.5/146601,146681,crf=12.5/157155,157183,crf=13/178370,178464,crf=12.5/188701,191531,crf=13
    Language                    : English
    Default                     : Yes
    Forced                      : No
    Color range                 : Limited
    Matrix coefficients         : BT.709
    Audio #1
    ID                          : 2
    Format                      : AC-3
    Format/Info                 : Audio Coding 3
    Mode extension              : CM (complete main)
    Format settings, Endianness : Big
    Codec ID                    : A_AC3
    Duration                    : 2h 21mn
    Bit rate mode               : Constant
    Bit rate                    : 640 Kbps
    Channel(s)                  : 6 channels
    Channel positions           : Front: L C R, Side: L R, LFE
    Sampling rate               : 48.0 KHz
    Frame rate                  : 31.250 fps (1536 spf)
    Compression mode            : Lossy
    Stream size                 : 649 MiB (6%)
    Title                       : AC3 5.1 @ 640 kbps - DUB, Blu-ray CEE
    Language                    : Russian
    Default                     : Yes
    Forced                      : No
    Audio #2
    ID                          : 3
    Format                      : AC-3
    Format/Info                 : Audio Coding 3
    Mode extension              : CM (complete main)
    Format settings, Endianness : Big
    Codec ID                    : A_AC3
    Duration                    : 2h 21mn
    Bit rate mode               : Constant
    Bit rate                    : 640 Kbps
    Channel(s)                  : 6 channels
    Channel positions           : Front: L C R, Side: L R, LFE
    Sampling rate               : 48.0 KHz
    Frame rate                  : 31.250 fps (1536 spf)
    Compression mode            : Lossy
    Stream size                 : 649 MiB (6%)
    Language                    : Russian
    Default                     : No
    Forced                      : No
    Audio #3
    ID                          : 4
    Format                      : DTS
    Format/Info                 : Digital Theater Systems
    Mode                        : 16
    Format settings, Endianness : Big
    Codec ID                    : A_DTS
    Duration                    : 2h 21mn
    Bit rate mode               : Constant
    Bit rate                    : 1 509 Kbps
    Channel(s)                  : 6 channels
    Channel positions           : Front: L C R, Side: L R, LFE
    Sampling rate               : 48.0 KHz
    Frame rate                  : 93.750 fps (512 spf)
    Bit depth                   : 24 bits
    Compression mode            : Lossy
    Stream size                 : 1.49 GiB (14%)
    Title                       : DTS 5.1 @ 1536 kbps - DUB, Disney / Buena Vista
    Language                    : Ukrainian
    Default                     : No
    Forced                      : No
    Audio #4
    ID                          : 5
    Format                      : DTS
    Format/Info                 : Digital Theater Systems
    Mode                        : 16
    Format settings, Endianness : Big
    Codec ID                    : A_DTS
    Duration                    : 2h 21mn
    Bit rate mode               : Constant
    Bit rate                    : 1 509 Kbps
    Channel(s)                  : 6 channels
    Channel positions           : Front: L C R, Side: L R, LFE
    Sampling rate               : 48.0 KHz
    Frame rate                  : 93.750 fps (512 spf)
    Bit depth                   : 24 bits
    Compression mode            : Lossy
    Delay relative to video     : 11ms
    Stream size                 : 1.49 GiB (14%)
    Title                       : DTS 5.1 @ 1536 kbps
    Language                    : English
    Default                     : No
    Forced                      : No
    Audio #5
    ID                          : 6
    Format                      : AC-3
    Format/Info                 : Audio Coding 3
    Mode extension              : CM (complete main)
    Format settings, Endianness : Big
    Codec ID                    : A_AC3
    Duration                    : 2h 21mn
    Bit rate mode               : Constant
    Bit rate                    : 192 Kbps
    Channel(s)                  : 2 channels
    Channel positions           : Front: L R
    Sampling rate               : 48.0 KHz
    Frame rate                  : 31.250 fps (1536 spf)
    Compression mode            : Lossy
    Stream size                 : 195 MiB (2%)
    Title                       : AC3 2.0 @ 192 kbps - Audio Commentary With Director Joss Whedon
    Language                    : English
    Default                     : No
    Forced                      : No
    Audio #6
    ID                          : 7
    Format                      : AC-3
    Format/Info                 : Audio Coding 3
    Format profile              : Dolby Digital
    Mode extension              : CM (complete main)
    Format settings, Endianness : Big
    Codec ID                    : A_AC3
    Duration                    : 2h 21mn
    Bit rate mode               : Constant
    Bit rate                    : 320 Kbps
    Channel(s)                  : 2 channels
    Channel positions           : Front: L R
    Sampling rate               : 48.0 KHz
    Frame rate                  : 31.250 fps (1536 spf)
    Compression mode            : Lossy
    Stream size                 : 324 MiB (3%)
    Title                       : AC3 2.0 @ 320 kbps - Descriptive
    Language                    : English
    Default                     : No
    Forced                      : No
    Text #1
    ID                          : 8
    Format                      : UTF-8
    Codec ID                    : S_TEXT/UTF8
    Codec ID/Info               : UTF-8 Plain Text
    Title                       : Forced, iTunes
    Language                    : Russian
    Default                     : Yes
    Forced                      : No
    Text #2
    ID                          : 9
    Format                      : UTF-8
    Codec ID                    : S_TEXT/UTF8
    Codec ID/Info               : UTF-8 Plain Text
    Title                       : iTunes
    Language                    : Russian
    Default                     : No
    Forced                      : No
    Text #3
    ID                          : 10
    Format                      : UTF-8
    Codec ID                    : S_TEXT/UTF8
    Codec ID/Info               : UTF-8 Plain Text
    Title                       : iTunes
    Language                    : Ukrainian
    Default                     : No
    Forced                      : No
    Text #4
    ID                          : 11
    Format                      : UTF-8
    Codec ID                    : S_TEXT/UTF8
    Codec ID/Info               : UTF-8 Plain Text
    Title                       : Forced, iTunes
    Language                    : English
    Default                     : No
    Forced                      : No
    Text #5
    ID                          : 12
    Format                      : UTF-8
    Codec ID                    : S_TEXT/UTF8
    Codec ID/Info               : UTF-8 Plain Text
    Title                       : iTunes
    Language                    : English
    Default                     : No
    Forced                      : No
    Menu
    00:00:00.000                : en:Battle for Loki's Scepter
    00:12:15.192                : en:Birth of Ultron
    00:21:23.949                : en:Avengers House Party
    00:33:01.771                : en:Attack Aftermath
    00:36:07.623                : en:Ultron Meers the Twins
    00:42:00.768                : en:Mind Games
    00:52:44.744                : en:Hulk vs. Hulkbuster
    00:59:01.871                : en:The Safe House
    01:15:51.088                : en:Cradle Robbing
    01:27:08.598                : en:Birthof the Vision
    01:36:44.757                : en:The Battle of Sokovia
    01:54:35.326                : en:"Is That the Best You Can Do?"
    02:06:27.580                : en:The New Avengers
    02:11:08.026                : en:End Credits

    Скриншоты

    Скачать .torrent

    Скачать торрент-файл бесплатно и на максимальной скорости!

    Как скачивать? · Что такое торрент? · Рейтинг и ограничения

    !ВНИМАНИЕ!
    Сайт не распространяет и не хранит электронные версии произведений, а занимается лишь лишь предоставлением доступа к создаваемому пользователями каталогу ссылок на торрент-файлы, которые содержат только списки хеш-сумм, убедительная просьба с жалобами обращаться напрямую к пользователю. Файлы для обмена на трекере предоставлены пользователями сайта, и администрация не несёт ответственности за их содержание. Просьба не заливать файлы, защищенные авторскими правами, а также файлы нелегального содержания!


    _________________
    [Профиль] [ЛС]
    Показать сообщения:    
    Ответить на тему

    Текущее время: Сегодня, в 10:31

    Часовой пояс: GMT + 2



    Вы не можете начинать темы
    Вы не можете отвечать на сообщения
    Вы не можете редактировать свои сообщения
    Вы не можете удалять свои сообщения
    Вы не можете голосовать в опросах
    Вы не можете прикреплять файлы к сообщениям
    Вы не можете скачивать файлы