BitTorrentTracker PerecTracker.org
BitTorrentTracker PerecTracker.org
    
Регистрация  ·  Вход
 
 · 
Забыли пароль?

  • Банда Пикассо / La banda Picasso (Фернандо Коломо / Fernando Colomo) [2012, Испания, Комедия, драма, DVDRip] + Original Fre + Sub Rus

    Ответить на тему
     
    Автор Сообщение

    rechyn

    Создавать темы 24-Фев-2016 03:16

           

    [Цитировать]

    Банда Пикассо / La banda Picasso
    Страна: Испания
    Жанр: Комедия, драма
    Год выпуска: 2012
    Продолжительность: 1:36:38
    Перевод: Субтитры (Playball)
    Cубтитры: русские (периодические хард. - испанские)
    Оригинальная аудиодорожка: французский (оригинальная)
    Режиссер: Фернандо Коломо / Fernando Colomo
    В ролях: Игнасио Матеос - Пабло Пикассо
    Пьер Бенезит - Гийом Аполлинер
    Стэнли Вебер - Жорж Брак
    Рафаэль Агоге - Фернанда Оливье
    Лионель Абелански - Макс Жакоб
    Алексис Михалик - "Барон"
    Хорди Вильчес - Маноло Уге
    Кристина Тома - Гертруда Стайн
    Тони Готье - Анри Матисс
    Луиза Моно - Мари Лорансен др.
    Описание: История о том как в 1911 году из Лувра была похищена «Джоконда», а Пабло Пикассо и его друг Гийом Аполлинер были арестованы по обвинению в краже. Пресса в те дни во всю трубила о международной «Банде Пикассо», которая прибыла во Францию грабить музеи…
    Доп. информация: Фильм был представлен в двух номинациях на Премии "Гойя-2013": лучшие костюмы и оригинальная песня ("L’as tu vue?" Альфонсо Альбасете и Хуана Бардема Агуадо)
    Стихотворение Поля Верлена "Un grand sommeil noir..." представлено в переводе В. Я. Брюсова.
    Сэмпл: http://multi-up.com/1090181
    Качество видео: DVDRip
    Формат видео: AVI
    Видео: XVID, 640*272, 25.000 fps, 1 012 Kbps
    Аудио: MPEG Audio, 48.0 KHz, 128 Kbps, 2 channels
    Формат субтитров: softsub (SRT)

    MediaInfo

    General
    Complete name : D:\КИНО\1Tracker\La.Banda.Picasso\La.Banda.Picasso.srt
    Format : SubRip
    File size : 104 KiB
    Text
    Format : SubRip
    Compression mode : Lossless
    General
    Complete name : D:\КИНО\1Tracker\La.Banda.Picasso\La.Banda.Picasso.avi
    Format : AVI
    Format/Info : Audio Video Interleave
    File size : 700 MiB
    Duration : 1h 36mn
    Overall bit rate : 1 012 Kbps
    Writing application : FairUse Wizard - http://fairusewizard.com
    Writing library : The best and REALLY easy backup tool
    Video
    ID : 0
    Format : MPEG-4 Visual
    Format profile : Advanced Simple@L5
    Format settings, BVOP : 1
    Format settings, QPel : No
    Format settings, GMC : No warppoints
    Format settings, Matrix : Default (MPEG)
    Muxing mode : Packed bitstream
    Codec ID : XVID
    Codec ID/Hint : XviD
    Duration : 1h 36mn
    Bit rate : 875 Kbps
    Width : 640 pixels
    Height : 272 pixels
    Display aspect ratio : 2.35:1
    Frame rate : 25.000 fps
    Color space : YUV
    Chroma subsampling : 4:2:0
    Bit depth : 8 bits
    Scan type : Progressive
    Compression mode : Lossy
    Bits/(Pixel*Frame) : 0.201
    Stream size : 605 MiB (86%)
    Writing library : XviD 1.2.0.dev47 (UTC 2006-11-01)
    Audio
    ID : 1
    Format : MPEG Audio
    Format version : Version 1
    Format profile : Layer 3
    Mode : Joint stereo
    Mode extension : MS Stereo
    Codec ID : 55
    Codec ID/Hint : MP3
    Duration : 1h 36mn
    Bit rate mode : Constant
    Bit rate : 128 Kbps
    Channel(s) : 2 channels
    Sampling rate : 48.0 KHz
    Compression mode : Lossy
    Stream size : 88.5 MiB (13%)
    Alignment : Aligned on interleaves
    Interleave, duration : 40 ms (1.00 video frame)
    Interleave, preload duration : 504 ms
    Writing library : LAME3.97
    Encoding settings : -m j -V 4 -q 2 -lowpass 17 -b 128

    Пример субтитров

    1
    00:00:18,320 --> 00:00:20,276
    Согласно требованию наследников
    2
    00:00:20,440 --> 00:00:22,670
    заявляем,
    что данный фильм является художественным,
    3
    00:00:22,840 --> 00:00:24,273
    хотя и основанным реальных событиях.
    4
    00:02:27,160 --> 00:02:29,515
    Месье Вильгельм Костровицкий?
    5
    00:02:29,960 --> 00:02:30,995
    Да, это я.
    6
    00:02:31,160 --> 00:02:32,195
    Мы из полиции.
    7
    00:02:32,400 --> 00:02:34,960
    У нас ордер на обыск вашей квартиры.
    8
    00:02:35,280 --> 00:02:36,280
    Что случилось?
    9
    00:02:36,320 --> 00:02:39,630
    Анонимное письмо,
    обвиняющее вас в краже "Джоконды".
    10
    00:03:41,680 --> 00:03:42,954
    Чем обязан?
    11
    00:03:43,280 --> 00:03:46,033
    Месье Пабло Руис... Пикассо?
    12
    00:03:47,040 --> 00:03:48,075
    Это вы?
    13
    00:03:48,400 --> 00:03:49,359
    Да.
    14
    00:03:49,360 --> 00:03:50,395
    Проследуйте за мной.
    15
    00:03:50,560 --> 00:03:52,516
    У меня ордер из Префектуры.
    16
    00:03:52,920 --> 00:03:54,478
    Это, должно быть, недоразумение.
    17
    00:03:57,360 --> 00:03:58,679
    Что происходит?
    18
    00:03:58,840 --> 00:04:01,035
    Месье должен дать показания
    19
    00:04:01,280 --> 00:04:03,669
    в суде не позже 9 часов.
    20
    00:04:12,040 --> 00:04:14,076
    - Я бы предпочел такси.
    - Поднимайтесь.
    21
    00:04:16,440 --> 00:04:17,668
    Садитесь.
    22
    00:04:20,320 --> 00:04:22,788
    На такси в участок у нас не принято.
    23
    00:04:23,240 --> 00:04:24,753
    Закон есть закон.
    24
    00:04:29,800 --> 00:04:30,799
    "Джоконда похищена"{\an8}
    25
    00:04:30,800 --> 00:04:32,995
    "Полиция разыскивает участников международной банды"{\an8}

    Скриншот c названием фильма

    Скриншоты

    Скачать .torrent

    Скачать торрент-файл бесплатно и на максимальной скорости!

    Как скачивать? · Что такое торрент? · Рейтинг и ограничения

    !ВНИМАНИЕ!
    Сайт не распространяет и не хранит электронные версии произведений, а занимается лишь лишь предоставлением доступа к создаваемому пользователями каталогу ссылок на торрент-файлы, которые содержат только списки хеш-сумм, убедительная просьба с жалобами обращаться напрямую к пользователю. Файлы для обмена на трекере предоставлены пользователями сайта, и администрация не несёт ответственности за их содержание. Просьба не заливать файлы, защищенные авторскими правами, а также файлы нелегального содержания!


    _________________
    [Профиль] [ЛС]
    Показать сообщения:    
    Ответить на тему

    Текущее время: Сегодня, в 22:23

    Часовой пояс: GMT + 2



    Вы не можете начинать темы
    Вы не можете отвечать на сообщения
    Вы не можете редактировать свои сообщения
    Вы не можете удалять свои сообщения
    Вы не можете голосовать в опросах
    Вы не можете прикреплять файлы к сообщениям
    Вы не можете скачивать файлы