BitTorrentTracker PerecTracker.org
BitTorrentTracker PerecTracker.org
    
Регистрация  ·  Вход
 
 · 
Забыли пароль?

  • В центре внимания / Spotlight (Том МакКарти / Tom McCarthy) [2015, США, Триллер, драма, биография, история, BDRip-AVC] MVO

    Ответить на тему
     
    Автор Сообщение

    rechyn

    Создавать темы 23-Фев-2016 23:04

           

    [Цитировать]

    В центре внимания / Spotlight
    «Break the story. Break the silence»
    -Страна: США
    Жанр: драма, биография, история
    Год выпуска: 2015
    Продолжительность: 02:09:08
    Перевод : Профессиональный (многоголосый закадровый)
    Навигация по главам: есть
    Режиссёр: Том МакКарти / Tom McCarthy
    В ролях: Марк Руффало, Майкл Китон, Рэйчел МакАдамс, Лив Шрайбер, Джон Слэттери, Стэнли Туччи, Брайан Д’Арси Джеймс, Елена Стайтелер, Джин Аморозо, Даг Мюррэй, Шэрон МакФарлэйн, Джейми Шеридан, Нил Хафф, Билли Крадап, Роберт Б. Кеннеди, Дуан Мюррэй, Брайан Чемберлен, Майкл Сирил Крейтон, Пол Гилфойл, Майкл Кантримэн
    Описание: Основанная на реальных событиях история журналистского расследования одного из самых громких в истории США секс-скандалов. Корреспонденты бостонской газеты разоблачают случаи педофилии, в которых обвиняются представители Церкви…

    Качество видео: BDRip-AVC (исходник - BDRemux|Spotlight.2015.REMUX.BluRay.1080p.AVC.DTS-HD.MA.5.1-iFT)
    Формат видео: MKV
    Видео: x264, 848x456 (1.85:1), 23,976 fps, ~1240 kbps, 0.134 bit/pixel
    Аудио: 48 kHz, AC3 Dolby Digital, 3/2 (L,C,R,l,r) + LFE ch, ~384 kbps
    MediaInfo | x264 log
    Format : Matroska
    Format version : Version 4 / Version 2
    File size : 1.47 GiB
    Duration : 2h 9mn
    Overall bit rate : 1 625 Kbps
    Movie name : В центре внимания / Spotlight (2015) :: AFM ::
    Encoded date : UTC 2016-02-22 09:20:27
    Writing application : mkvmerge v8.3.0 ('Over the Horizon') 32bit
    Writing library : libebml v1.3.1 + libmatroska v1.4.2
    Video
    ID : 1
    Format : AVC
    Format/Info : Advanced Video Codec
    Format profile : High@L4.1
    Format settings, CABAC : Yes
    Format settings, ReFrames : 8 frames
    Codec ID : V_MPEG4/ISO/AVC
    Duration : 2h 9mn
    Bit rate : 1 240 Kbps
    Width : 848 pixels
    Height : 456 pixels
    Display aspect ratio : 1.85:1
    Frame rate mode : Constant
    Frame rate : 23.976 fps
    Color space : YUV
    Chroma subsampling : 4:2:0
    Bit depth : 8 bits
    Scan type : Progressive
    Bits/(Pixel*Frame) : 0.134
    Stream size : 1.09 GiB (74%)
    Title : BDRip by AFM [RuTracker.org]
    Writing library : x264 core 148 r2665+53 6629127 t_mod_Custom [8-bit@all X86_64]
    Encoding settings : cabac=1 / ref=8 / deblock=1:-3:-2 / analyse=0x3:0x113 / me=umh / subme=11 / psy=1 / fade_compensate=0.00 / psy_rd=1.00:0.00 / mixed_ref=1 / me_range=32 / chroma_me=1 / trellis=2 / 8x8dct=1 / cqm=0 / deadzone=21,11 / fast_pskip=0 / chroma_qp_offset=-2 / threads=6 / lookahead_threads=1 / sliced_threads=0 / nr=0 / decimate=0 / interlaced=0 / bluray_compat=0 / constrained_intra=0 / fgo=0 / bframes=15 / b_pyramid=2 / b_adapt=2 / b_bias=0 / direct=3 / weightb=1 / open_gop=0 / weightp=2 / keyint=250 / keyint_min=23 / scenecut=40 / intra_refresh=0 / rc_lookahead=40 / rc=2pass / mbtree=0 / bitrate=1240 / ratetol=1.0 / qcomp=0.65 / qpmin=0:0:0 / qpmax=69:69:69 / qpstep=4 / cplxblur=20.0 / qblur=0.5 / vbv_maxrate=50000 / vbv_bufsize=62500 / nal_hrd=none / filler=0 / ip_ratio=1.35 / pb_ratio=1.30 / aq=2:0.90 / aq-sensitivity=10.00 / aq-factor=1.00:1.00:1.00 / aq2=0 / aq3=0 / zones=173430,185768,q=35
    Language : English
    Default : Yes
    Forced : No
    Audio
    ID : 2
    Format : AC-3
    Format/Info : Audio Coding 3
    Mode extension : CM (complete main)
    Format settings, Endianness : Big
    Codec ID : A_AC3
    Duration : 2h 9mn
    Bit rate mode : Constant
    Bit rate : 384 Kbps
    Channel(s) : 6 channels
    Channel positions : Front: L C R, Side: L R, LFE
    Sampling rate : 48.0 KHz
    Compression mode : Lossy
    Stream size : 355 MiB (24%)
    Title : iTunes AC3 5.1 ~384 kbps
    Language : Russian
    Default : Yes
    Forced : No
    Menu
    00:00:00.000 : en:(01)00:00:00:000
    00:08:20.750 : en:(02)00:08:20:750
    00:14:30.536 : en:(03)00:14:30:536
    00:21:51.518 : en:(04)00:21:51:518
    00:27:38.907 : en:(05)00:27:38:907
    00:35:48.771 : en:(06)00:35:48:771
    00:45:38.986 : en:(07)00:45:38:986
    00:49:12.199 : en:(08)00:49:12:199
    00:53:21.156 : en:(09)00:53:21:156
    00:59:36.573 : en:(10)00:59:36:573
    01:05:29.216 : en:(11)01:05:29:216
    01:10:47.534 : en:(12)01:10:47:534
    01:17:30.687 : en:(13)01:17:30:687
    01:23:30.046 : en:(14)01:23:30:046
    01:30:03.147 : en:(15)01:30:03:147
    01:34:27.495 : en:(16)01:34:27:495
    01:42:52.541 : en:(17)01:42:52:541
    01:50:57.942 : en:(18)01:50:57:942
    01:55:50.109 : en:(19)01:55:50:109
    02:01:30.574 : en:(20)02:01:30:574
    02:09:07.906 : en:(21)02:09:07:906

    x264

    x264 [info]: frame I:1343 Avg QP:17.86 size: 58832
    x264 [info]: frame P:35844 Avg QP:21.73 size: 14441
    x264 [info]: frame B:148581 Avg QP:22.70 size: 4063
    x264 [info]: consecutive B-frames: 1.5% 1.8% 4.4% 14.1% 13.8% 46.7% 7.2% 2.1% 2.1% 1.0% 1.2% 1.0% 0.9% 0.6% 0.5% 1.1%
    x264 [info]: mb I I16..4: 4.5% 72.6% 22.9%
    x264 [info]: mb P I16..4: 0.2% 4.1% 0.8% P16..4: 33.0% 37.3% 13.5% 0.0% 0.0% skip:11.1%
    x264 [info]: mb B I16..4: 0.0% 0.3% 0.0% B16..8: 33.7% 14.8% 3.0% direct: 2.8% skip:45.5% L0:44.7% L1:46.1% BI: 9.2%
    x264 [info]: 8x8 transform intra:77.7% inter:58.4%
    x264 [info]: direct mvs spatial:97.4% temporal:2.6%
    x264 [info]: coded y,uvDC,uvAC intra: 92.3% 64.4% 39.0% inter: 15.8% 6.0% 1.7%
    x264 [info]: i16 v,h,dc,p: 29% 22% 7% 42%
    x264 [info]: i8 v,h,dc,ddl,ddr,vr,hd,vl,hu: 13% 8% 9% 9% 13% 12% 12% 11% 12%
    x264 [info]: i4 v,h,dc,ddl,ddr,vr,hd,vl,hu: 15% 10% 4% 9% 14% 13% 13% 10% 12%
    x264 [info]: i8c dc,h,v,p: 32% 32% 23% 14%
    x264 [info]: Weighted P-Frames: Y:97.5% UV:0.7%
    x264 [info]: ref P L0: 47.2% 10.5% 18.1% 6.7% 5.9% 4.4% 4.4% 2.6% 0.2% 0.0%
    x264 [info]: ref B L0: 66.2% 13.9% 8.8% 4.5% 3.9% 1.9% 0.8%
    x264 [info]: ref B L1: 89.9% 10.1%
    x264 [info]: kb/s:1239.41

    Скриншоты

    с названием

    Скачать .torrent

    Скачать торрент-файл бесплатно и на максимальной скорости!

    Как скачивать? · Что такое торрент? · Рейтинг и ограничения

    !ВНИМАНИЕ!
    Сайт не распространяет и не хранит электронные версии произведений, а занимается лишь лишь предоставлением доступа к создаваемому пользователями каталогу ссылок на торрент-файлы, которые содержат только списки хеш-сумм, убедительная просьба с жалобами обращаться напрямую к пользователю. Файлы для обмена на трекере предоставлены пользователями сайта, и администрация не несёт ответственности за их содержание. Просьба не заливать файлы, защищенные авторскими правами, а также файлы нелегального содержания!


    _________________
    [Профиль] [ЛС]
    Показать сообщения:    
    Ответить на тему

    Текущее время: Сегодня, в 06:34

    Часовой пояс: GMT + 2



    Вы не можете начинать темы
    Вы не можете отвечать на сообщения
    Вы не можете редактировать свои сообщения
    Вы не можете удалять свои сообщения
    Вы не можете голосовать в опросах
    Вы не можете прикреплять файлы к сообщениям
    Вы не можете скачивать файлы