BitTorrentTracker PerecTracker.org
BitTorrentTracker PerecTracker.org
    
Регистрация  ·  Вход
 
 · 
Забыли пароль?

  • Король-лягушонок / Froschkönig / The Frog Prince (Вальтер Бек / Walter Beck) [1988, Германия (ГДР), сказка, BDRip 720p] AVO (Сербин) + Original Ger

    Ответить на тему
     
    Автор Сообщение

    Flirldrerve

    Создавать темы 23-Фев-2016 18:52

           

    [Цитировать]

    Король-лягушонок / Froschkönig / The Frog Prince

    Страна: Германия (ГДР)
    Студия: ДЕФА / DEFA
    Жанр: сказка
    Год выпуска: 1988
    Продолжительность: 01:04:09
    Перевод: Авторский (одноголосый закадровый) Сербин
    Cубтитры: нет
    Оригинальная аудиодорожка: немецкий
    Режиссер: Вальтер Бек / Walter Beck
    В ролях: Яна Матюкат, Йенс-Уве Богадкё, Петер Зодан, Франциска Глёс-Эберманн, Сусанна Люнинг, Томас Вольф, Педро Хебенштрайт, Дитер Вин, Гюнтер Шуберт, Герд Блахушек
    Описание: Однажды юная принцесса играла у колодца с золотым шаром и случайно уронила его в колодец. Горько заплака юная дева и пообещала исполнить любое желание того, кто поможет ей достать любимую игрушку со дна колодца.

    Сэмпл: https://yadi.sk/d/MdGqz_ChpGe3c
    Тип релиза: BDRip 720p
    Контейнер: MKV
    Видео: AVC, 980x720, 4:3, 7000 kbps, 25.000 fps
    Аудио 1: RUS, AC3, 2.0, 48 kHz, 384 kbps
    Аудио 2: GER, AC3, 2.0, 48 kHz, 384 kbps

    MediaInfo

    General
    Unique ID : 190776796261431249615512937133984362361 (0x8F8646431A72DC719FACCB61511AAF79)
    Complete name : Король-лягушонок [1988] 720p.mkv
    Format : Matroska
    Format version : Version 4 / Version 2
    File size : 3.48 GiB
    Duration : 1h 4mn
    Overall bit rate : 7 771 Kbps
    Encoded date : UTC 2016-02-21 22:53:00
    Writing application : mkvmerge v8.3.0 ('Over the Horizon') 32bit
    Writing library : libebml v1.3.1 + libmatroska v1.4.2
    Video
    ID : 1
    Format : AVC
    Format/Info : Advanced Video Codec
    Format profile : High@L4.1
    Format settings, CABAC : Yes
    Format settings, ReFrames : 11 frames
    Codec ID : V_MPEG4/ISO/AVC
    Duration : 1h 4mn
    Bit rate : 7 000 Kbps
    Width : 980 pixels
    Height : 720 pixels
    Display aspect ratio : 4:3
    Frame rate mode : Constant
    Frame rate : 25.000 fps
    Color space : YUV
    Chroma subsampling : 4:2:0
    Bit depth : 8 bits
    Scan type : Progressive
    Bits/(Pixel*Frame) : 0.397
    Stream size : 3.07 GiB (88%)
    Writing library : x264 core 146 r2538bm 121396c
    Encoding settings : cabac=1 / ref=11 / deblock=1:-2:-2 / analyse=0x3:0x133 / me=umh / subme=10 / psy=1 / psy_rd=1.00:0.25 / mixed_ref=1 / me_range=24 / chroma_me=1 / trellis=2 / 8x8dct=1 / cqm=0 / deadzone=6,6 / fast_pskip=1 / chroma_qp_offset=-4 / threads=12 / lookahead_threads=2 / sliced_threads=0 / nr=0 / decimate=0 / interlaced=0 / bluray_compat=0 / constrained_intra=0 / bframes=8 / b_pyramid=2 / b_adapt=2 / b_bias=0 / direct=3 / weightb=1 / open_gop=0 / weightp=2 / keyint=250 / keyint_min=25 / scenecut=40 / intra_refresh=0 / rc_lookahead=60 / rc=2pass / mbtree=1 / bitrate=7000 / ratetol=1.0 / qcomp=0.80 / qpmin=0 / qpmax=69 / qpstep=4 / cplxblur=20.0 / qblur=0.5 / ip_ratio=1.10 / aq=1:0.50
    Language : German
    Default : Yes
    Forced : No
    Audio #1
    ID : 2
    Format : AC-3
    Format/Info : Audio Coding 3
    Mode extension : CM (complete main)
    Format settings, Endianness : Big
    Codec ID : A_AC3
    Duration : 1h 4mn
    Bit rate mode : Constant
    Bit rate : 384 Kbps
    Channel(s) : 2 channels
    Channel positions : Front: L R
    Sampling rate : 48.0 KHz
    Compression mode : Lossy
    Stream size : 176 MiB (5%)
    Language : Russian
    Default : Yes
    Forced : No
    Audio #2
    ID : 3
    Format : AC-3
    Format/Info : Audio Coding 3
    Mode extension : CM (complete main)
    Format settings, Endianness : Big
    Codec ID : A_AC3
    Duration : 1h 4mn
    Bit rate mode : Constant
    Bit rate : 384 Kbps
    Channel(s) : 2 channels
    Channel positions : Front: L R
    Sampling rate : 48.0 KHz
    Compression mode : Lossy
    Stream size : 176 MiB (5%)
    Language : German
    Default : No
    Forced : No

    Скриншоты

    Скачать .torrent

    Скачать торрент-файл бесплатно и на максимальной скорости!

    Как скачивать? · Что такое торрент? · Рейтинг и ограничения

    !ВНИМАНИЕ!
    Сайт не распространяет и не хранит электронные версии произведений, а занимается лишь лишь предоставлением доступа к создаваемому пользователями каталогу ссылок на торрент-файлы, которые содержат только списки хеш-сумм, убедительная просьба с жалобами обращаться напрямую к пользователю. Файлы для обмена на трекере предоставлены пользователями сайта, и администрация не несёт ответственности за их содержание. Просьба не заливать файлы, защищенные авторскими правами, а также файлы нелегального содержания!


    _________________
    [Профиль] [ЛС]
    Показать сообщения:    
    Ответить на тему

    Текущее время: Сегодня, в 18:13

    Часовой пояс: GMT + 2



    Вы не можете начинать темы
    Вы не можете отвечать на сообщения
    Вы не можете редактировать свои сообщения
    Вы не можете удалять свои сообщения
    Вы не можете голосовать в опросах
    Вы не можете прикреплять файлы к сообщениям
    Вы не можете скачивать файлы