BitTorrentTracker PerecTracker.org
BitTorrentTracker PerecTracker.org
    
Регистрация  ·  Вход
 
 · 
Забыли пароль?

  • [ATV3] Монстры на каникулах 2 / Hotel Transylvania 2 (Генндий Тартаковский / Genndy Tartakovsky ) [2015, США, Мультфильм, фэнтези, комедия, семейный, BDRip, HD (1080p)] DUB + Original + sub (rus, eng, ukr)

    Ответить на тему
     
    Автор Сообщение

    Light

    Создавать темы 23-Фев-2016 14:40

           

    [Цитировать]

    Монстры на каникулах 2 / Hotel Transylvania 2
    «Drac's pack is back»
    7.432 / 10 6.90 / 10
    -Год выпуска: 2015
    Страна: США
    Жанр: Мультфильм, фэнтези, комедия, семейный
    Продолжительность: 01:29:18
    Перевод: Дублированный (iTunes)
    Оригинальная аудиодорожка: Есть
    Cубтитры: Русские форсированные, Русские, Английские, Украинские
    Режиссёр: Генндий Тартаковский
    Сценарий: Роберт Шмигель, Адам Сэндлер
    Продюсер: Мишель Мурдокка, Аллен Коверт, Скай Лайонс
    Композитор: Марк Мазерсбо
    Художник: Майкл Курински, Стефен Дж. Ламли
    Монтаж: Катрин Эппл
    В ролях: Адам Сэндлер, Энди Сэмберг, Селена Гомес, Кевин Джеймс, Стив Бушеми, Дэвид Спейд, Кигэн-Майкл Ки, Эшер Блинкофф, Фрэн Дрешер, Молли Шеннон
    Бюджет: $80 000 000
    Сборы в США: $167 803 439
    Сборы в мире: + $288 200 000 = $456 003 439
    Сборы в России: $17 247 966
    Мировая премьера: 21 сентября 2015
    Премьера (РФ): 22 октября 2015, «WDSSPR»
    Релиз на DVD: 21 января 2016, «CP Дистрибуция»
    Описание: Граф Дракула выдает свою очаровательную дочь замуж за парня из мира людей, и у молодой «смешанной» пары рождается сын. Станет ли этот ребенок человеком или вампиром?-Качество исходника: BDRemux (HDClub)
    Качество: BDRip
    Тип: HD (1080p)
    Контейнер: M4V
    Видео: H.264, 1920x1040, 1.85:1, 6 500 Kbps, 23.976 (24000/1001) fps
    Аудио 1: Русский/Дублированный (iTunes), AAC / 2.0 / 156 Kbps / 48.0 KHz
    Аудио 2: Английский/Оригинальная дорожка , AAC / 2.0 / 158 Kbps / 48.0 KHz
    Аудио 3: Украинский/Дублированный (iTunes), AAC / 2.0 / 155 Kbps / 44.1 KHz
    Аудио 4: Русский/Дублированный (iTunes), AC-3 / 5.1 / 384 Kbps / 48.0 KHz
    Аудио 5: Английский/Оригинальная дорожка , AC-3 / 5.1 / 640 Kbps / 48.0 KHz
    Субтитры 1: Русские форсированные
    Субтитры 2: Русские полные
    Субтитры 3: Английские полные
    Субтитры 4: Украинские полные
    -

    iTunes Meta Tags

    Sort Name: Hotel Transylvania 2
    XID: Apple:vendor_id:2015-716891
    contentID: 1037551705
    Screenwriters: Роберт Шмигель, Адам Сэндлер
    Producers: Мишель Мурдокка, Аллен Коверт, Скай Лайонс
    Director: Генндий Тартаковский
    Cast: Адам Сэндлер, Энди Сэмберг, Селена Гомес, Кевин Джеймс, Стив Бушеми, Дэвид Спейд, Кигэн-Майкл Ки, Эшер Блинкофф, Фрэн Дрешер, Молли Шеннон, Сергей Бурунов, Александр Пушной, Полина Гагарина, Владимир Антоник, Дмитрий Полонский
    Studio: Sony Pictures Animation Inc.
    Rating: 3
    Long Description: Граф Дракула выдает свою очаровательную дочь замуж за парня из мира людей, и у молодой "смешанной" пары рождается сын. Станет ли этот ребенок человеком или вампиром?
    Description: Граф Дракула выдает свою очаровательную дочь замуж за парня из мира людей, и у молодой "смешанной" пары рождается сын. Станет ли этот ребенок человеком или вампиром?
    Release Date: 2015-09-21T08:00:00Z
    Genre: Kids & Family
    Artist: Genndy Tartakovsky
    Name: Hotel Transylvania 2

    MediaInfo

    General
    Complete name : /Users/imac/HandBrake/Hotel Transylvania 2 (1080p HD).m4v
    Format : MPEG-4
    Codec ID : M4V  (M4V /M4A /mp42/isom)
    File size : 4.99 GiB
    Duration : 1h 29mn
    Overall bit rate mode : Variable
    Overall bit rate : 8 005 Kbps
    Movie name : Hotel Transylvania 2
    Performer : Genndy Tartakovsky
    Director : Генндий Тартаковский
    Actor : Адам Сэндлер / Энди Сэмберг / Селена Гомес / Кевин Джеймс / Стив Бушеми / Дэвид Спейд / Кигэн-Майкл Ки / Эшер Блинкофф / Фрэн Дрешер / Молли Шеннон / Сергей Бурунов / Александр Пушной / Полина Гагарина / Владимир Антоник / Дмитрий Полонский
    Screenplay by : Роберт Шмигель / Адам Сэндлер
    Producer : Мишель Мурдокка / Аллен Коверт / Скай Лайонс
    Production studio : Sony Pictures Animation Inc.
    Genre : Kids & Family
    ContentType : Short Film
    Description : Граф Дракула выдает свою очаровательную дочь замуж за парня из мира людей, и у молодой "смешанной" пары рождается сын. Станет ли этот ребенок человеком или вампиром?
    Recorded date : UTC 2015-09-21 08:00:00
    Encoded date : UTC 2015-12-29 21:20:43
    Tagged date : UTC 2015-12-29 21:24:56
    Cover : Yes
    Rating : None
    Title/Sort : Hotel Transylvania 2
    LongDescription : Граф Дракула выдает свою очаровательную дочь замуж за парня из мира людей, и у молодой "смешанной" пары рождается сын. Станет ли этот ребенок человеком или вампиром?
    AppleStoreCatalogID : 1037551705
    Vendor : Apple:vendor_id:2015-716891
    ContentRating : mpaa|PG|200|
    Video #1
    ID : 1
    Format : AVC
    Format/Info : Advanced Video Codec
    Format profile : High@L4
    Format settings, CABAC : Yes
    Format settings, ReFrames : 4 frames
    Codec ID : avc1
    Codec ID/Info : Advanced Video Coding
    Duration : 1h 29mn
    Source duration : 1h 29mn
    Bit rate : 6 500 Kbps
    Width : 1 920 pixels
    Height : 1 040 pixels
    Display aspect ratio : 1.85:1
    Frame rate mode : Variable
    Frame rate : 23.976 (24000/1001) fps
    Minimum frame rate : 23.974 fps
    Maximum frame rate : 23.981 fps
    Color space : YUV
    Chroma subsampling : 4:2:0
    Bit depth : 8 bits
    Scan type : Progressive
    Bits/(Pixel*Frame) : 0.136
    Stream size : 4.06 GiB (81%)
    Source stream size : 4.06 GiB (81%)
    Title : Main Program
    Writing library : x264 core 142 r2479 dd79a61
    Encoding settings : cabac=1 / ref=4 / deblock=1:0:0 / analyse=0x3:0x133 / me=umh / subme=10 / psy=1 / psy_rd=1.00:0.00 / mixed_ref=1 / me_range=32 / chroma_me=1 / trellis=2 / 8x8dct=1 / cqm=0 / deadzone=21,11 / fast_pskip=1 / chroma_qp_offset=-2 / threads=36 / lookahead_threads=4 / sliced_threads=0 / nr=0 / decimate=1 / interlaced=0 / bluray_compat=0 / constrained_intra=0 / bframes=4 / b_pyramid=2 / b_adapt=2 / b_bias=0 / direct=3 / weightb=1 / open_gop=0 / weightp=2 / keyint=240 / keyint_min=24 / scenecut=40 / intra_refresh=0 / rc_lookahead=40 / rc=2pass / mbtree=0 / bitrate=6500 / ratetol=1.0 / qcomp=0.60 / qpmin=0 / qpmax=69 / qpstep=4 / cplxblur=20.0 / qblur=0.5 / vbv_maxrate=25000 / vbv_bufsize=25000 / nal_hrd=none / filler=0 / ip_ratio=1.40 / pb_ratio=1.30 / aq=1:1.00
    Language : English
    Encoded date : UTC 2015-12-29 21:20:43
    Tagged date : UTC 2015-12-29 21:20:53
    Color range : Limited
    Color primaries : BT.709
    Transfer characteristics : BT.709
    Matrix coefficients : BT.709
    Menus : 11,12
    Video #2
    ID : 12
    Format : JPEG
    Codec ID : jpeg
    Duration : 1h 29mn
    Bit rate mode : Variable
    Bit rate : 946 bps
    Width : 640 pixels
    Height : 346 pixels
    Display aspect ratio : 1.85:1
    Frame rate mode : Variable
    Frame rate : 0.003 fps
    Minimum frame rate : 0.002 fps
    Maximum frame rate : 0.005 fps
    Color space : YUV
    Chroma subsampling : 4:2:0
    Bit depth : 8 bits
    Compression mode : Lossy
    Bits/(Pixel*Frame) : 1.424
    Stream size : 616 KiB (0%)
    Title : Chapter Images
    Language : English
    Default : No
    Encoded date : UTC 2015-12-29 21:21:02
    Tagged date : UTC 2015-12-29 21:21:03
    Menu For : 1
    Audio #1
    ID : 2
    Format : AAC
    Format/Info : Advanced Audio Codec
    Format profile : LC
    Codec ID : 40
    Duration : 1h 29mn
    Bit rate mode : Variable
    Bit rate : 156 Kbps
    Maximum bit rate : 255 Kbps
    Channel(s) : 2 channels
    Channel positions : Front: L R
    Sampling rate : 48.0 KHz
    Frame rate : 46.875 fps (1024 spf)
    Compression mode : Lossy
    Stream size : 99.7 MiB (2%)
    Title : Russian Stereo
    Language : Russian
    Default : Yes
    Alternate group : 1
    Encoded date : UTC 2015-12-29 21:20:43
    Tagged date : UTC 2015-12-29 21:20:54
    Fallback From : 5
    Subtitles : 7,8
    Menus : 11
    Audio #2
    ID : 3
    Format : AAC
    Format/Info : Advanced Audio Codec
    Format profile : LC
    Codec ID : 40
    Duration : 1h 29mn
    Bit rate mode : Variable
    Bit rate : 158 Kbps
    Maximum bit rate : 256 Kbps
    Channel(s) : 2 channels
    Channel positions : Front: L R
    Sampling rate : 48.0 KHz
    Frame rate : 46.875 fps (1024 spf)
    Compression mode : Lossy
    Stream size : 101 MiB (2%)
    Title : English Stereo
    Language : English
    Default : No
    Alternate group : 1
    Encoded date : UTC 2015-12-29 21:20:44
    Tagged date : UTC 2015-12-29 21:20:52
    Fallback From : 6
    Audio #3
    ID : 4
    Format : AAC
    Format/Info : Advanced Audio Codec
    Format profile : LC
    Codec ID : 40
    Duration : 1h 29mn
    Bit rate mode : Variable
    Bit rate : 155 Kbps
    Maximum bit rate : 269 Kbps
    Channel(s) : 2 channels
    Channel positions : Front: L R
    Sampling rate : 44.1 KHz
    Frame rate : 43.066 fps (1024 spf)
    Compression mode : Lossy
    Stream size : 99.2 MiB (2%)
    Title : Ukrainian Stereo
    Language : Ukrainian
    Default : No
    Alternate group : 1
    Encoded date : UTC 2015-12-29 21:20:44
    Tagged date : UTC 2015-12-29 21:20:54
    Audio #4
    ID : 5
    Format : AC-3
    Format/Info : Audio Coding 3
    Mode extension : CM (complete main)
    Format settings, Endianness : Big
    Codec ID : ac-3
    Duration : 1h 29mn
    Bit rate mode : Constant
    Bit rate : 384 Kbps
    Channel(s) : 6 channels
    Channel positions : Front: L C R, Side: L R, LFE
    Sampling rate : 48.0 KHz
    Frame rate : 31.250 fps (1536 spf)
    Bit depth : 16 bits
    Compression mode : Lossy
    Stream size : 245 MiB (5%)
    Title : Russian DD 5.1
    Language : Russian
    Default : Inherited From: 2
    Alternate group : 1
    Encoded date : UTC 2015-12-29 21:20:44
    Tagged date : UTC 2015-12-29 21:20:50
    Fallback To : 2
    Subtitles : 7,8
    Audio #5
    ID : 6
    Format : AC-3
    Format/Info : Audio Coding 3
    Mode extension : CM (complete main)
    Format settings, Endianness : Big
    Codec ID : ac-3
    Duration : 1h 29mn
    Bit rate mode : Constant
    Bit rate : 640 Kbps
    Channel(s) : 6 channels
    Channel positions : Front: L C R, Side: L R, LFE
    Sampling rate : 48.0 KHz
    Frame rate : 31.250 fps (1536 spf)
    Bit depth : 16 bits
    Compression mode : Lossy
    Stream size : 409 MiB (8%)
    Title : English DD 5.1
    Language : English
    Default : No
    Alternate group : 1
    Encoded date : UTC 2015-12-29 21:20:44
    Tagged date : UTC 2015-12-29 21:20:50
    Fallback To : 3
    Text #1
    ID : 7
    Format : Timed Text
    Muxing mode : sbtl
    Codec ID : tx3g
    Duration : 1h 20mn
    Bit rate mode : Variable
    Bit rate : 0 bps
    Stream size : 201 Bytes (0%)
    Title : Russian forced
    Language : Russian
    Default : Yes
    Forced : Yes
    Alternate group : 2
    Encoded date : UTC 2015-12-29 21:20:44
    Tagged date : UTC 2015-12-29 21:20:44
    Subtitles For : 2,5
    Full Alternative : 8
    Text #2
    ID : 8
    Format : Timed Text
    Muxing mode : sbtl
    Codec ID : tx3g
    Duration : 1h 20mn
    Bit rate mode : Variable
    Bit rate : 126 bps
    Stream size : 74.0 KiB (0%)
    Title : Russian full
    Language : Russian
    Default : No
    Forced : No
    Alternate group : 2
    Encoded date : UTC 2015-12-29 21:20:44
    Tagged date : UTC 2015-12-29 21:20:44
    Subtitles For : 2,5
    Forced Alternative : 7
    Text #3
    ID : 9
    Format : Timed Text
    Muxing mode : sbtl
    Codec ID : tx3g
    Duration : 1h 20mn
    Bit rate mode : Variable
    Bit rate : 73 bps
    Stream size : 42.8 KiB (0%)
    Title : English full
    Language : English
    Default : No
    Forced : No
    Alternate group : 2
    Encoded date : UTC 2015-12-29 21:20:44
    Tagged date : UTC 2015-12-29 21:20:44
    Text #4
    ID : 10
    Format : Timed Text
    Muxing mode : sbtl
    Codec ID : tx3g
    Duration : 1h 20mn
    Bit rate mode : Variable
    Bit rate : 125 bps
    Stream size : 73.9 KiB (0%)
    Title : Ukrainian full
    Language : Ukrainian
    Default : No
    Forced : No
    Alternate group : 2
    Encoded date : UTC 2015-12-29 21:20:44
    Tagged date : UTC 2015-12-29 21:20:44
    Menu #1
    00:00:00.000 : Chapter 1
    00:05:46.555 : Chapter 2
    00:09:17.724 : Chapter 3
    00:13:09.789 : Chapter 4
    00:19:29.210 : Chapter 5
    00:22:42.570 : Chapter 6
    00:30:05.387 : Chapter 7
    00:36:12.462 : Chapter 8
    00:40:01.065 : Chapter 9
    00:45:54.460 : Chapter 10
    00:51:22.538 : Chapter 11
    00:56:54.995 : Chapter 12
    01:04:02.005 : Chapter 13
    01:08:32.900 : Chapter 14
    01:13:29.488 : Chapter 15
    01:18:35.961 : Chapter 16
    Menu #2
    ID : 11
    Codec ID : text
    Duration : 1h 29mn
    Language : English
    Encoded date : UTC 2015-12-29 21:20:54
    Tagged date : UTC 2015-12-29 21:20:54
    Menu For : 2,1
    00:00:00.000 : Chapter 1
    00:05:46.555 : Chapter 2
    00:09:17.724 : Chapter 3
    00:13:09.789 : Chapter 4
    00:19:29.210 : Chapter 5
    00:22:42.570 : Chapter 6
    00:30:05.387 : Chapter 7
    00:36:12.462 : Chapter 8
    00:40:01.065 : Chapter 9
    00:45:54.460 : Chapter 10
    00:51:22.538 : Chapter 11
    00:56:54.995 : Chapter 12
    01:04:02.005 : Chapter 13
    01:08:32.900 : Chapter 14
    01:13:29.488 : Chapter 15
    01:18:35.961 : Chapter 16
    Bit rate mode : VBR

    x264 лог

    x264 [info]: frame I:1146  Avg QP:13.33  size:225119
    x264 [info]: frame P:40300 Avg QP:15.26  size: 63573
    x264 [info]: frame B:87025 Avg QP:17.34  size: 17630
    x264 [info]: consecutive B-frames:  5.8% 10.9%  5.4% 72.9%  5.0%
    x264 [info]: mb I  I16..4:  4.2% 81.4% 14.4%
    x264 [info]: mb P  I16..4:  2.0% 12.2%  1.5%  P16..4: 40.2% 18.3% 13.4%  0.3%  0.1%    skip:12.1%
    x264 [info]: mb B  I16..4:  0.2%  0.9%  0.1%  B16..8: 40.0%  9.1%  2.0%  direct: 3.7%  skip:44.0%  L0:44.2% L1:49.3% BI: 6.5%
    x264 [info]: 8x8 transform intra:77.8% inter:57.1%
    x264 [info]: direct mvs  spatial:98.3% temporal:1.7%
    x264 [info]: coded y,uvDC,uvAC intra: 79.5% 80.8% 60.1% inter: 18.0% 16.1% 3.8%
    x264 [info]: i16 v,h,dc,p: 18% 13%  8% 61%
    x264 [info]: i8 v,h,dc,ddl,ddr,vr,hd,vl,hu: 11%  9% 12%  9% 12% 12% 12% 11% 13%
    x264 [info]: i4 v,h,dc,ddl,ddr,vr,hd,vl,hu: 11%  9%  5% 10% 15% 14% 13% 11% 12%
    x264 [info]: i8c dc,h,v,p: 41% 22% 19% 17%
    x264 [info]: Weighted P-Frames: Y:2.0% UV:1.2%
    x264 [info]: ref P L0: 60.7%  6.2% 21.1% 10.6%  1.3%  0.0%
    x264 [info]: ref B L0: 85.0% 12.1%  2.9%
    x264 [info]: ref B L1: 93.4%  6.6%
    x264 [info]: kb/s:6500.97

    Скриншоты

    -

    Релиз подготовлен для просмотра на Apple TV, iPad, iPhone, iPod Touch.
    Для просмотра данного релиза на компьютере с ОС Windows рекомендуется использовать VLC media player
    Скачать .torrent

    Скачать торрент-файл бесплатно и на максимальной скорости!

    Как скачивать? · Что такое торрент? · Рейтинг и ограничения

    !ВНИМАНИЕ!
    Сайт не распространяет и не хранит электронные версии произведений, а занимается лишь лишь предоставлением доступа к создаваемому пользователями каталогу ссылок на торрент-файлы, которые содержат только списки хеш-сумм, убедительная просьба с жалобами обращаться напрямую к пользователю. Файлы для обмена на трекере предоставлены пользователями сайта, и администрация не несёт ответственности за их содержание. Просьба не заливать файлы, защищенные авторскими правами, а также файлы нелегального содержания!


    _________________
    [Профиль] [ЛС]
    Показать сообщения:    
    Ответить на тему

    Текущее время: Сегодня, в 04:04

    Часовой пояс: GMT + 2



    Вы не можете начинать темы
    Вы не можете отвечать на сообщения
    Вы не можете редактировать свои сообщения
    Вы не можете удалять свои сообщения
    Вы не можете голосовать в опросах
    Вы не можете прикреплять файлы к сообщениям
    Вы не можете скачивать файлы