BitTorrentTracker PerecTracker.org
BitTorrentTracker PerecTracker.org
    
Регистрация  ·  Вход
 
 · 
Забыли пароль?

  • Мадагаскар 3 / Madagascar 3: Europe\'s Most Wanted (Эрик Дарнелл, Том МакГрат, Конрад Вернон) [2012 г., мультфильм, комедия, приключения, семейный, BDRip HD (720p)] DUB (rus, ukr), Original + SUB (rus, ukr, eng)

    Ответить на тему
     
    Автор Сообщение

    Light

    Создавать темы 23-Фев-2016 14:40

           

    [Цитировать]

    Мадагаскар 3 / Madagascar 3: Europe's Most Wanted
    6.90 / 10 | 6.80 / 10 | 7.596 / 10 | MPAA: PG
    -Год выпуска: 2012
    Страна: США
    Жанр: мультфильм, комедия, приключения, семейный
    Продолжительность: 01:33:24
    Перевод: Профессиональный дублированный перевод
    Субтитры: Русские, украинские и английские
    Режиссер: Эрик Дарнелл, Том МакГрат, Конрад Вернон
    Сценарий: Эрик Дарнелл, Ноа Баумбах
    Продюсер: Мирей Сория, Марк Свифт, Холли Эдвардс
    Композитор: Ханс Циммер
    В ролях: Бен Стиллер, Крис Рок, Дэвид Швиммер, Джада Пинкетт Смит, Саша Барон Коэн, Седрик «Развлекатель», Энди Рихтер, Том МакГрат, Фрэнсис МакДорманд, Джессика Честейн-Бюджет: $145 000 000
    Сборы в США: $216 391 482
    Сборы в мире: + $528 718 769 = $745 110 251
    Сборы в России: $48 921 000
    DVD в США: $53 757 061
    Мировая премьера: 18 мая 2012
    Премьера (РФ): 7 июня 2012, «Централ Партнершип»
    Релиз на Blu-Ray: 16 октября 2012, «Новый Диск»
    Релиз на DVD: 16 октября 2012, «Новый Диск»-Описание: Лев Алекс, зебра Марти, гиппопотамиха Глория и жираф Мелман, а также король Джулиан, Морис, Морт и Пингвины все еще пытаются вернуться в Нью-Йорк. На этот раз их путь пройдет через Европу, где они откроют свой цирк.-Исходник: Blu-Ray (HDClub)
    Контейнер: M4V
    Видео кодек:AVC
    Аудио кодек: AAC, AC3
    Видео: 1280x720 at 23.976 fps, MPEG-4 AVC, ~6000 kbps avg
    Аудио №1: Stereo RUS (160 kbps) / Дубляж, Blu-Ray CEE
    Аудио №2: Stereo UKR (160 kbps) / Дубляж, Blu-Ray CEE
    Аудио №3: Stereo ENG (160 kbps) / Оригинал
    Аудио №4: AC-3 RUS (640 kbps) / Дубляж, Blu-Ray CEE
    Аудио №5: AC-3 UKR (640 kbps) / Дубляж, Blu-Ray CEE
    Аудио №6: AC-3 ENG (640 kbps) / Оригинал
    Субтитры №1: Russian Forced
    Субтитры №2: Ukrainian Forced
    Субтитры №3: Russian Full
    Субтитры №4: Ukrainian Full
    Субтитры №5: English

    Знаете ли Вы, что...

    • Название судна в последних кадрах фильма — «Mal De Mer», что в переводе с французского означает «Морская болезнь».
    • Капитан Шантель Дюбуа поет для своих приспешников «Non, je ne regrette rien» в течение минуты. Это французская песня, получившая известность после того, как в 1960 году ее записала Эдит Пиаф. Пиаф посвятила запись этой песни французскому отряду иностранных волонтеров, которые до сих пор поют ее на парадах. В соответствии с реакцией мужчин на эту песню, предполагается, что все они служат или служили в этом отряде.
    -
    Ошибки в мультфильме

    • Когда капитан Шантель Дюбуа распечатывает информацию из своего поиска, персонаж за кадром говорит, что слышит, как начал работать лазерный принтер. Показывают струйный принтер, а звук, использованный для него, взят от матричного принтера.
    -

    iTunes Meta Tags

    Sort Name: Madagascar 3
    XID: Apple:vendor_id:2012-422792
    contentID: 550561282
    Copyright: © 2012 DreamWorks Animation LLC. All Rights Reserved.
    Screenwriters: Эрик Дарнелл, Ноа Баумбах
    Producers: Мирей Сория, Марк Свифт, Холли Эдвардс
    Director: Эрик Дарнелл, Том МакГрат, Конрад Вернон
    Cast: Бен Стиллер, Крис Рок, Дэвид Швиммер, Джада Пинкетт Смит, Саша Барон Коэн, Седрик «Развлекатель», Энди Рихтер, Том МакГрат, Фрэнсис МакДорманд, Джессика Честейн
    Studio: DreamWorks Animation
    Rating: 3
    Long Description: Лев Алекс, зебра Марти, гиппопотамиха Глория и жираф Мелман, а также король Джулиан, Морис, Морт и Пингвины все еще пытаются вернуться в Нью-Йорк. На этот раз их путь пройдет через Европу, где они откроют свой цирк.
    Description: Лев Алекс, зебра Марти, гиппопотамиха Глория и жираф Мелман, а также король Джулиан, Морис, Морт и Пингвины все еще пытаются вернуться в Нью-Йорк. На этот раз их путь пройдет через Европу, где они откроют свой цирк.
    Release Date: 2012-05-18T07:00:00Z
    Genre: Comedy
    Artist: Eric Darnell, Conrad Vernon & Tom McGrath
    Name: Madagascar 3: Europe's Most Wanted

    MediaInfo

    General
    Complete name : /Volumes/iTunes2/My Films/Madagascar 3_ Europe's Most Wanted (HD).m4v
    Format : MPEG-4
    Codec ID : M4V
    File size : 5.49 GiB
    Duration : 1h 33mn
    Overall bit rate mode : Variable
    Overall bit rate : 8 411 Kbps
    Movie name : Madagascar 3: Europe's Most Wanted
    Performer : Eric Darnell, Conrad Vernon & Tom McGrath
    Genre : Comedy
    Recorded date : UTC 2012-05-18 07:00:00
    Encoded date : UTC 2013-08-21 09:29:51
    Tagged date : UTC 2013-08-21 09:35:14
    Copyright : © 2012 DreamWorks Animation LLC. All Rights Reserved.
    Cover : Yes
    sonm : Madagascar 3
    desc : Лев Алекс, зебра Марти, гиппопотамиха Глория и жираф Мелман, а также король Джулиан, Морис, Морт и Пингвины все еще пытаются вернуться в Нью-Йорк. На этот раз их путь пройдет через Европу, где они откроют свой цирк.
    ldes : Лев Алекс, зебра Марти, гиппопотамиха Глория и жираф Мелман, а также король Джулиан, Морис, Морт и Пингвины все еще пытаются вернуться в Нью-Йорк. На этот раз их путь пройдет через Европу, где они откроют свой цирк.
    hdvd : 1
    stik : 9
    rtng : 0
    cnID : 550561282
    xid : Apple:vendor_id:2012-422792
    iTunEXTC : mpaa|PG|200|
    iTunMOVI : <?xml version="1.0" encoding="UTF-8"?> / <!DOCTYPE plist PUBLIC "-//Apple//DTD PLIST 1.0//EN" "http://anonym.to/?http://www.apple.com/DTDs/PropertyList-1.0.dtd"> / <plist version="1.0"> / <dict> /  <key>cast</key> /  <array> /   <dict> /    <key>name</key> /    <string>Бен Стиллер</string> /   </dict> /   <dict> /    <key>name</key> /    <string>Крис Рок</string> /   </dict> /   <dict> /    <key>name</key> /    <string>Дэвид Швиммер</string> /   </dict> /   <dict> /    <key>name</key> /    <string>Джада Пинкетт Смит</string> /   </dict> /   <dict> /    <key>name</key> /    <string>Саша Барон Коэн</string> /   </dict> /   <dict> /    <key>name</key> /    <string>Седрик «Развлекатель»</string> /   </dict> /   <dict> /    <key>name</key> /    <string>Энди Рихтер</string> /   </dict> /   <dict> /    <key>name</key> /    <string>Том МакГрат</string> /   </dict> /   <dict> /    <key>name</key> /    <string>Фрэнсис МакДорманд</string> /   </dict> /   <dict> /    <key>name</key> /    <string>Джессика Честейн</string> /   </dict> /  </array> /  <key>directors</key> /  <array> /   <dict> /    <key>name</key> /    <string>Эрик Дарнелл</string> /   </dict> /   <dict> /    <key>name</key> /    <string>Том МакГрат</string> /   </dict> /   <dict> /    <key>name</key> /    <string>Конрад Вернон</string> /   </dict> /  </array> /  <key>producers</key> /  <array> /   <dict> /    <key>name</key> /    <string>Мирей Сория</string> /   </dict> /   <dict> /    <key>name</key> /    <string>Марк Свифт</string> /   </dict> /   <dict> /    <key>name</key> /    <string>Холли Эдвардс</string> /   </dict> /  </array> /  <key>screenwriters</key> /  <array> /   <dict> /    <key>name</key> /    <string>Эрик Дарнелл</string> /   </dict> /   <dict> /    <key>name</key> /    <string>Ноа Баумбах</string> /   </dict> /  </array> /  <key>studio</key> /  <string>DreamWorks Animation</string> / </dict> / </plist>
    Video #1
    ID : 1
    Format : AVC
    Format/Info : Advanced Video Codec
    Format profile : High@L3.1
    Format settings, CABAC : No
    Format settings, ReFrames : 3 frames
    Codec ID : avc1
    Codec ID/Info : Advanced Video Coding
    Duration : 1h 33mn
    Bit rate mode : Variable
    Bit rate : 6 000 Kbps
    Width : 1 280 pixels
    Height : 720 pixels
    Display aspect ratio : 16:9
    Frame rate mode : Variable
    Frame rate : 23.976 fps
    Minimum frame rate : 23.974 fps
    Maximum frame rate : 23.981 fps
    Color space : YUV
    Chroma subsampling : 4:2:0
    Bit depth : 8 bits
    Scan type : Progressive
    Bits/(Pixel*Frame) : 0.272
    Stream size : 3.90 GiB (71%)
    Writing library : x264 core 130 r2273 b3065e6
    Encoding settings : cabac=0 / ref=3 / deblock=1:-1:-3 / analyse=0x3:0x113 / me=umh / subme=9 / psy=1 / psy_rd=0.90:0.00 / mixed_ref=1 / me_range=32 / chroma_me=1 / trellis=0 / 8x8dct=1 / cqm=0 / deadzone=21,11 / fast_pskip=1 / chroma_qp_offset=-2 / threads=6 / lookahead_threads=1 / sliced_threads=0 / nr=0 / decimate=1 / interlaced=0 / bluray_compat=0 / constrained_intra=0 / bframes=3 / b_pyramid=0 / b_adapt=2 / b_bias=0 / direct=1 / weightb=0 / open_gop=0 / weightp=0 / keyint=240 / keyint_min=24 / scenecut=40 / intra_refresh=0 / rc_lookahead=40 / rc=2pass / mbtree=1 / bitrate=6000 / ratetol=1.0 / qcomp=0.60 / qpmin=0 / qpmax=69 / qpstep=4 / cplxblur=20.0 / qblur=0.5 / vbv_maxrate=9500 / vbv_bufsize=9500 / nal_hrd=none / ip_ratio=1.40 / aq=1:1.00
    Language : English
    Encoded date : UTC 2013-08-21 09:29:51
    Tagged date : UTC 2013-08-21 09:32:40
    Color primaries : BT.709
    Transfer characteristics : BT.709
    Matrix coefficients : BT.709
    Video #2
    ID : 14
    Format : JPEG
    Codec ID : jpeg
    Duration : 1h 33mn
    Bit rate mode : Variable
    Bit rate : 1 326 bps
    Width : 640 pixels
    Height : 360 pixels
    Display aspect ratio : 16:9
    Frame rate mode : Variable
    Frame rate : 0.003 fps
    Minimum frame rate : 0.002 fps
    Maximum frame rate : 0.011 fps
    Color space : YUV
    Chroma subsampling : 4:2:0
    Bit depth : 8 bits
    Compression mode : Lossy
    Bits/(Pixel*Frame) : 1.918
    Stream size : 863 KiB (0%)
    Language : English
    Encoded date : UTC 2013-08-21 09:33:37
    Tagged date : UTC 2013-08-21 09:33:37
    Audio #1
    ID : 2
    Format : AAC
    Format/Info : Advanced Audio Codec
    Format profile : LC
    Codec ID : 40
    Duration : 1h 33mn
    Bit rate mode : Variable
    Bit rate : 165 Kbps
    Maximum bit rate : 276 Kbps
    Channel(s) : 2 channels
    Channel positions : Front: L R
    Sampling rate : 48.0 KHz
    Compression mode : Lossy
    Delay relative to video : 42ms
    Stream size : 111 MiB (2%)
    Language : Russian
    Encoded date : UTC 2013-08-21 09:29:51
    Tagged date : UTC 2013-08-21 09:29:58
    Audio #2
    ID : 3
    Format : AAC
    Format/Info : Advanced Audio Codec
    Format profile : LC
    Codec ID : 40
    Duration : 1h 33mn
    Bit rate mode : Variable
    Bit rate : 165 Kbps
    Maximum bit rate : 259 Kbps
    Channel(s) : 2 channels
    Channel positions : Front: L R
    Sampling rate : 48.0 KHz
    Compression mode : Lossy
    Delay relative to video : 42ms
    Stream size : 110 MiB (2%)
    Language : Ukrainian
    Encoded date : UTC 2013-08-21 09:29:51
    Tagged date : UTC 2013-08-21 09:32:47
    Audio #3
    ID : 4
    Format : AAC
    Format/Info : Advanced Audio Codec
    Format profile : LC
    Codec ID : 40
    Duration : 1h 33mn
    Bit rate mode : Variable
    Bit rate : 165 Kbps
    Maximum bit rate : 260 Kbps
    Channel(s) : 2 channels
    Channel positions : Front: L R
    Sampling rate : 48.0 KHz
    Compression mode : Lossy
    Delay relative to video : 42ms
    Stream size : 110 MiB (2%)
    Language : English
    Encoded date : UTC 2013-08-21 09:29:51
    Tagged date : UTC 2013-08-21 09:32:55
    Audio #4
    ID : 5
    Format : AC-3
    Format/Info : Audio Coding 3
    Mode extension : CM (complete main)
    Format settings, Endianness : Big
    Codec ID : ac-3
    Duration : 1h 33mn
    Bit rate mode : Constant
    Bit rate : 640 Kbps
    Channel(s) : 6 channels
    Channel positions : Front: L C R, Side: L R, LFE
    Sampling rate : 48.0 KHz
    Bit depth : 16 bits
    Compression mode : Lossy
    Delay relative to video : 42ms
    Stream size : 428 MiB (8%)
    Language : Russian
    Encoded date : UTC 2013-08-21 09:29:51
    Tagged date : UTC 2013-08-21 09:33:01
    Audio #5
    ID : 6
    Format : AC-3
    Format/Info : Audio Coding 3
    Mode extension : CM (complete main)
    Format settings, Endianness : Big
    Codec ID : ac-3
    Duration : 1h 33mn
    Bit rate mode : Constant
    Bit rate : 640 Kbps
    Channel(s) : 6 channels
    Channel positions : Front: L C R, Side: L R, LFE
    Sampling rate : 48.0 KHz
    Bit depth : 16 bits
    Compression mode : Lossy
    Delay relative to video : 42ms
    Stream size : 428 MiB (8%)
    Language : Ukrainian
    Encoded date : UTC 2013-08-21 09:29:51
    Tagged date : UTC 2013-08-21 09:33:09
    Audio #6
    ID : 7
    Format : AC-3
    Format/Info : Audio Coding 3
    Mode extension : CM (complete main)
    Format settings, Endianness : Big
    Codec ID : ac-3
    Duration : 1h 33mn
    Bit rate mode : Constant
    Bit rate : 640 Kbps
    Channel(s) : 6 channels
    Channel positions : Front: L C R, Side: L R, LFE
    Sampling rate : 48.0 KHz
    Bit depth : 16 bits
    Compression mode : Lossy
    Delay relative to video : 42ms
    Stream size : 428 MiB (8%)
    Language : English
    Encoded date : UTC 2013-08-21 09:29:51
    Tagged date : UTC 2013-08-21 09:33:27
    Text #1
    ID : 8
    Format : Timed Text
    Muxing mode : sbtl
    Codec ID : tx3g
    Duration : 1h 22mn
    Bit rate mode : Variable
    Bit rate : 1 bps
    Delay relative to video : 42ms
    Stream size : 823 Bytes (0%)
    Language : Russian
    Encoded date : UTC 2013-08-21 09:29:51
    Tagged date : UTC 2013-08-21 09:33:27
    Text #2
    ID : 9
    Format : Timed Text
    Muxing mode : sbtl
    Codec ID : tx3g
    Duration : 1h 22mn
    Bit rate mode : Variable
    Bit rate : 2 bps
    Delay relative to video : 42ms
    Stream size : 984 Bytes (0%)
    Language : Ukrainian
    Encoded date : UTC 2013-08-21 09:29:51
    Tagged date : UTC 2013-08-21 09:33:27
    Text #3
    ID : 10
    Format : Timed Text
    Muxing mode : sbtl
    Codec ID : tx3g
    Duration : 1h 22mn
    Bit rate mode : Variable
    Bit rate : 110 bps
    Delay relative to video : 42ms
    Stream size : 66.6 KiB (0%)
    Language : Russian
    Encoded date : UTC 2013-08-21 09:29:51
    Tagged date : UTC 2013-08-21 09:33:28
    Text #4
    ID : 11
    Format : Timed Text
    Muxing mode : sbtl
    Codec ID : tx3g
    Duration : 1h 22mn
    Bit rate mode : Variable
    Bit rate : 101 bps
    Delay relative to video : 42ms
    Stream size : 61.0 KiB (0%)
    Language : Ukrainian
    Encoded date : UTC 2013-08-21 09:29:51
    Tagged date : UTC 2013-08-21 09:33:28
    Text #5
    ID : 12
    Format : Timed Text
    Muxing mode : sbtl
    Codec ID : tx3g
    Duration : 1h 22mn
    Bit rate mode : Variable
    Bit rate : 73 bps
    Delay relative to video : 42ms
    Stream size : 44.0 KiB (0%)
    Language : English
    Encoded date : UTC 2013-08-21 09:29:51
    Tagged date : UTC 2013-08-21 09:33:28
    Menu #1
    00:00:00.000 : Chapter 1
    00:05:16.316 : Chapter 2
    00:10:51.985 : Chapter 3
    00:19:46.310 : Chapter 4
    00:27:49.835 : Chapter 5
    00:32:50.552 : Chapter 6
    00:40:34.974 : Chapter 7
    00:46:51.976 : Chapter 8
    00:52:00.534 : Chapter 9
    00:58:55.157 : Chapter 10
    01:00:23.411 : Chapter 11
    01:04:19.314 : Chapter 12
    01:10:59.672 : Chapter 13
    01:15:30.317 : Chapter 14
    01:21:09.782 : Chapter 15
    01:22:48.630 : Chapter 16
    Menu #2
    ID : 13
    Codec ID : text
    Duration : 1h 33mn
    Language : English
    Encoded date : UTC 2013-08-21 09:33:28
    Tagged date : UTC 2013-08-21 09:33:28
    Bit rate mode : VBR
    00:00:00.000 : Chapter 1
    00:05:16.316 : Chapter 2
    00:10:51.985 : Chapter 3
    00:19:46.310 : Chapter 4
    00:27:49.835 : Chapter 5
    00:32:50.552 : Chapter 6
    00:40:34.974 : Chapter 7
    00:46:51.976 : Chapter 8
    00:52:00.534 : Chapter 9
    00:58:55.157 : Chapter 10
    01:00:23.411 : Chapter 11
    01:04:19.314 : Chapter 12
    01:10:59.672 : Chapter 13
    01:15:30.317 : Chapter 14
    01:21:09.782 : Chapter 15
    01:22:48.630 : Chapter 16

    x264 лог

    x264 [info]: frame I:1730  Avg QP:13.71  size:195107  PSNR Mean Y:48.85 U:51.47 V:51.46 Avg:49.49 Global:49.02
    x264 [info]: frame P:57810 Avg QP:16.43  size: 49351  PSNR Mean Y:46.25 U:49.09 V:49.04 Avg:46.94 Global:46.30
    x264 [info]: frame B:74825 Avg QP:20.47  size: 13299  PSNR Mean Y:45.26 U:48.64 V:48.60 Avg:46.03 Global:45.36
    x264 [info]: consecutive B-frames:  6.6% 45.2% 36.8% 11.4%
    x264 [info]: mb I  I16..4:  6.0% 51.8% 42.2%
    x264 [info]: mb P  I16..4:  2.4%  7.8%  4.9%  P16..4: 35.9% 24.0% 11.3%  0.0%  0.0%    skip:13.9%
    x264 [info]: mb B  I16..4:  0.4%  1.3%  1.0%  B16..8: 35.1% 11.0%  2.4%  direct: 4.3%  skip:44.4%  L0:37.1% L1:47.3% BI:15.6%
    x264 [info]: 8x8 transform intra:51.3% inter:43.3%
    x264 [info]: coded y,uvDC,uvAC intra: 80.7% 83.3% 65.1% inter: 20.1% 19.5% 7.8%
    x264 [info]: i16 v,h,dc,p: 31% 16%  7% 46%
    x264 [info]: i8 v,h,dc,ddl,ddr,vr,hd,vl,hu:  9% 12%  5% 10% 13% 13% 14% 11% 13%
    x264 [info]: i4 v,h,dc,ddl,ddr,vr,hd,vl,hu: 10% 12%  4% 10% 16% 14% 14% 10%  9%
    x264 [info]: i8c dc,h,v,p: 46% 20% 19% 15%
    x264 [info]: ref P L0: 74.4% 16.2%  9.3%
    x264 [info]: ref B L0: 81.6% 18.4%
    x264 [info]: SSIM Mean Y:0.9889589 (19.570db)
    x264 [info]: PSNR Mean Y:45.729 U:48.869 V:48.827 Avg:46.467 Global:45.776 kb/s:5974.95

    Скриншоты

    -

    Релиз подготовлен для просмотра на Apple TV, iPad, iPhone, iPod Touch.
    Для просмотра данного релиза на компьютере с ОС Windows рекомендуется использовать VLC media player-
    Скачать .torrent

    Скачать торрент-файл бесплатно и на максимальной скорости!

    Как скачивать? · Что такое торрент? · Рейтинг и ограничения

    !ВНИМАНИЕ!
    Сайт не распространяет и не хранит электронные версии произведений, а занимается лишь лишь предоставлением доступа к создаваемому пользователями каталогу ссылок на торрент-файлы, которые содержат только списки хеш-сумм, убедительная просьба с жалобами обращаться напрямую к пользователю. Файлы для обмена на трекере предоставлены пользователями сайта, и администрация не несёт ответственности за их содержание. Просьба не заливать файлы, защищенные авторскими правами, а также файлы нелегального содержания!


    _________________
    [Профиль] [ЛС]
    Показать сообщения:    
    Ответить на тему

    Текущее время: Сегодня, в 07:49

    Часовой пояс: GMT + 2



    Вы не можете начинать темы
    Вы не можете отвечать на сообщения
    Вы не можете редактировать свои сообщения
    Вы не можете удалять свои сообщения
    Вы не можете голосовать в опросах
    Вы не можете прикреплять файлы к сообщениям
    Вы не можете скачивать файлы