BitTorrentTracker PerecTracker.org
BitTorrentTracker PerecTracker.org
    
Регистрация  ·  Вход
 
 · 
Забыли пароль?

  • Ёлки 1914 (Ольга Харина) [2014, Семейный, комедия, драма, BDRip]

    Ответить на тему
     
    Автор Сообщение

    rechyn

    Создавать темы 23-Фев-2016 14:40

           

    [Цитировать]

    Ёлки 1914
    «Такихъ елокъ не было 100 лет»
    -Год выпуска: 2014
    Выпущено: Россия / Базелевс Продакшн
    Жанр: семейный, комедия, драма
    Продолжительность: 01:47:37-Режиссёры:
    Ольга Харина, Тимур Бекмамбетов, Заур Засеев, Дмитрий Киселёв, Александр Котт, Юрий Быков, Александр Карпиловский, Екатерина Телегина, Андрей Кавун-В ролях:
    Константин Хабенский (голос автора, озвучка / папа), Иван Ургант (Боря), Сергей Светлаков (Женя), Евгения Брик (Белла), Нина Дворжецкая (Елена Павловна), Ирина Архипова (Антонина), Альберт Филозов (Василий Григорьевич), Елена Плаксина (Ольга), Антон Богданов (Сенька), Ян Цапник (Александр Аркадьевич), Виктор Вержбицкий (граф Востриков), Александр Паль (Иван), Вера Панфилова (Татьяна), Дато Бахтадзе (Генерал Тархан-Моуравов), Евгений Пронин (брат Ивана), Александр Половцев (комендант), Артур Смольянинов (Петр), Катерина Шпица (Ксения), Владимир Гостюхин (начальник)-Описание:
    100 лет назад, Российская империя… Канун Рождества. Декабрьские пробки, праздничные гулянья, роскошные балы и скромные праздники, титулованные дворяне и обычные крестьяне, царская семья и солдаты первой мировой войны, прогрессивные поэты и первые фигуристы — все было по-другому, за исключением … праздника. Люди готовились, жили, верили, мечтали и ждали настоящего чуда — Рождества!-Релиз групп
    | | КиноПоиск | Сэмпл |-Качество: BDRip [Blu-ray Disc]
    Формат: AVI
    Видео: 720x304 (2.37:1), 24.000 fps, XviD build 67 ~1544 kbps avg, 0.29 bit/pixel
    Аудио: 48 kHz, AC3 Dolby Digital, 3/2 (L,C,R,l,r) + LFE ch, ~384 kbps avg-

    Скриншоты

    -

    MediaInfo

    General
    Complete name                            : D:\Elki_1914_2014_BDRip_by_Dalemake.avi
    Format                                   : AVI
    Format/Info                              : Audio Video Interleave
    File size                                : 1.46 GiB
    Duration                                 : 1h 47mn
    Overall bit rate                         : 1 938 Kbps
    Writing application                      : VirtualDubMod 1.5.10.3 | www.virtualdub-fr.org || (build 2550/release)
    Writing library                          : VirtualDubMod build 2550/release
    Video
    ID                                       : 0
    Format                                   : MPEG-4 Visual
    Format profile                           : Advanced Simple@L5
    Format settings, BVOP                    : 1
    Format settings, QPel                    : No
    Format settings, GMC                     : No warppoints
    Format settings, Matrix                  : Custom
    Codec ID                                 : XVID
    Codec ID/Hint                            : XviD
    Duration                                 : 1h 47mn
    Bit rate                                 : 1 545 Kbps
    Width                                    : 720 pixels
    Height                                   : 304 pixels
    Display aspect ratio                     : 2.35:1
    Frame rate                               : 24.000 fps
    Color space                              : YUV
    Chroma subsampling                       : 4:2:0
    Bit depth                                : 8 bits
    Scan type                                : Progressive
    Compression mode                         : Lossy
    Bits/(Pixel*Frame)                       : 0.294
    Stream size                              : 1.16 GiB (80%)
    Writing library                          : XviD 67
    Audio
    ID                                       : 1
    Format                                   : AC-3
    Format/Info                              : Audio Coding 3
    Mode extension                           : CM (complete main)
    Format settings, Endianness              : Big
    Codec ID                                 : 2000
    Duration                                 : 1h 47mn
    Bit rate mode                            : Constant
    Bit rate                                 : 384 Kbps
    Channel(s)                               : 6 channels
    Channel positions                        : Front: L C R, Side: L R, LFE
    Sampling rate                            : 48.0 KHz
    Frame rate                               : 31.250 fps (1536 spf)
    Compression mode                         : Lossy
    Stream size                              : 296 MiB (20%)
    Alignment                                : Split accross interleaves
    Interleave, duration                     : 42 ms (1.00 video frame)
    Interleave, preload duration             : 500 ms
    -
    Скачать .torrent

    Скачать торрент-файл бесплатно и на максимальной скорости!

    Как скачивать? · Что такое торрент? · Рейтинг и ограничения

    !ВНИМАНИЕ!
    Сайт не распространяет и не хранит электронные версии произведений, а занимается лишь лишь предоставлением доступа к создаваемому пользователями каталогу ссылок на торрент-файлы, которые содержат только списки хеш-сумм, убедительная просьба с жалобами обращаться напрямую к пользователю. Файлы для обмена на трекере предоставлены пользователями сайта, и администрация не несёт ответственности за их содержание. Просьба не заливать файлы, защищенные авторскими правами, а также файлы нелегального содержания!


    _________________
    [Профиль] [ЛС]
    Показать сообщения:    
    Ответить на тему

    Текущее время: Сегодня, в 23:59

    Часовой пояс: GMT + 2



    Вы не можете начинать темы
    Вы не можете отвечать на сообщения
    Вы не можете редактировать свои сообщения
    Вы не можете удалять свои сообщения
    Вы не можете голосовать в опросах
    Вы не можете прикреплять файлы к сообщениям
    Вы не можете скачивать файлы