BitTorrentTracker PerecTracker.org
BitTorrentTracker PerecTracker.org
    
Регистрация  ·  Вход
 
 · 
Забыли пароль?

  • Бой с тенью (Алексей Сидоров) [2005, Боевик, драма, DVDRip]

    Ответить на тему
     
    Автор Сообщение

    rechyn

    Создавать темы 22-Фев-2016 21:52

           

    [Цитировать]

    -Год выхода: 2015
    Выпущено: Россия / Централ Партнершип
    Жанр: боевик, драма
    Продолжительность: 02:06:25-Режиссёр:
    Алексей Сидоров-В ролях:
    Денис Никифоров (Артем Колчин), Андрей Панин (Валиев), Елена Панова (Вика), Дмитрий Шевченко (Нечаев), Александр Кузнецов (Змей), Джон Эймос (Хилл), Павел Деревянко (Тимоха), Сергей Безруков (Саша Белый), Исаак Сулейманов (Фрэнк), Иван Макаревич (Костя), Никита Зверев (Игорь Щеглов), Ольга Хохлова (Татьяна Николаевна)-Описание:
    Артем Колчин был одним из многих, но он хотел славы. И он выбрал свой путь: он стал боксером. Теперь Артем претендент на чемпионский титул, боец, известный по всему миру, Большая Белая Надежда. Но главный бой в его жизни пошел не так, как он ожидал. Теперь ему предстоит решать свои проблемы вне ринга. У него всего три дня, чтобы расквитаться с теми, кто его предал, защитить любимую женщину от наемных убийц и собрать огромную сумму денег. В реальном мире бьют без перчаток и без правил. Вместо ринга — злые улицы большого города. И нет рефери, который может остановить бой. Но боец остается бойцом. Он знает, что такое страх, но способен не бояться. Он продолжает биться, даже когда надежда умерла. Счет идет на часы. И Артем начинает бой. За любовь. За друзей. За собственную жизнь.-Релиз групп
    | | КиноПоиск | Сэмпл |-Качество: DVDRip
    Формат: AVI
    Видео: 720x304 (2.37:1), 25 fps, XviD build 73 ~1259 kbps avg, 0.23 bit/pixel
    Аудио: 48 kHz, AC3 Dolby Digital, 3/2 (L,C,R,l,r) + LFE ch, ~384 kbps-

    Скриншоты

    -

    MediaInfo

    General
    Complete name                            : D:\Boi_s_ten`u_2005_DVDRip_by_Dalemake.avi
    Format                                   : AVI
    Format/Info                              : Audio Video Interleave
    File size                                : 1.46 GiB
    Duration                                 : 2h 6mn
    Overall bit rate                         : 1 653 Kbps
    Writing application                      : VirtualDubMod 1.5.10.3 | www.virtualdub-fr.org || (build 2550/release)
    Writing library                          : VirtualDubMod build 2550/release
    Video
    ID                                       : 0
    Format                                   : MPEG-4 Visual
    Format profile                           : Advanced Simple@L5
    Format settings, BVOP                    : 1
    Format settings, QPel                    : No
    Format settings, GMC                     : No warppoints
    Format settings, Matrix                  : Custom
    Codec ID                                 : XVID
    Codec ID/Hint                            : XviD
    Duration                                 : 2h 6mn
    Bit rate                                 : 1 259 Kbps
    Width                                    : 720 pixels
    Height                                   : 304 pixels
    Display aspect ratio                     : 2.35:1
    Frame rate                               : 25.000 fps
    Color space                              : YUV
    Chroma subsampling                       : 4:2:0
    Bit depth                                : 8 bits
    Scan type                                : Progressive
    Compression mode                         : Lossy
    Bits/(Pixel*Frame)                       : 0.230
    Stream size                              : 1.11 GiB (76%)
    Writing library                          : XviD 73
    Audio
    ID                                       : 1
    Format                                   : AC-3
    Format/Info                              : Audio Coding 3
    Mode extension                           : CM (complete main)
    Format settings, Endianness              : Big
    Codec ID                                 : 2000
    Duration                                 : 2h 6mn
    Bit rate mode                            : Constant
    Bit rate                                 : 384 Kbps
    Channel(s)                               : 6 channels
    Channel positions                        : Front: L C R, Side: L R, LFE
    Sampling rate                            : 48.0 KHz
    Frame rate                               : 31.250 fps (1536 spf)
    Compression mode                         : Lossy
    Stream size                              : 347 MiB (23%)
    Alignment                                : Split accross interleaves
    Interleave, duration                     : 40 ms (1.00 video frame)
    Interleave, preload duration             : 500 ms
    -
    Скачать .torrent

    Скачать торрент-файл бесплатно и на максимальной скорости!

    Как скачивать? · Что такое торрент? · Рейтинг и ограничения

    !ВНИМАНИЕ!
    Сайт не распространяет и не хранит электронные версии произведений, а занимается лишь лишь предоставлением доступа к создаваемому пользователями каталогу ссылок на торрент-файлы, которые содержат только списки хеш-сумм, убедительная просьба с жалобами обращаться напрямую к пользователю. Файлы для обмена на трекере предоставлены пользователями сайта, и администрация не несёт ответственности за их содержание. Просьба не заливать файлы, защищенные авторскими правами, а также файлы нелегального содержания!


    _________________
    [Профиль] [ЛС]
    Показать сообщения:    
    Ответить на тему

    Текущее время: Сегодня, в 10:42

    Часовой пояс: GMT + 2



    Вы не можете начинать темы
    Вы не можете отвечать на сообщения
    Вы не можете редактировать свои сообщения
    Вы не можете удалять свои сообщения
    Вы не можете голосовать в опросах
    Вы не можете прикреплять файлы к сообщениям
    Вы не можете скачивать файлы