BitTorrentTracker PerecTracker.org
BitTorrentTracker PerecTracker.org
    
Регистрация  ·  Вход
 
 · 
Забыли пароль?

  • Школа Монстров: Большой Кошмарный риф / Monster High: Great Scarrier Reef (Уильям Лау / William Lau) [2016, мультфильм, семейный, DVB-AVC] Dub

    Ответить на тему
     
    Автор Сообщение

    rechyn

    Создавать темы 22-Фев-2016 17:40

           

    [Цитировать]

    Школа Монстров: Большой Кошмарный риф / Monster High: Great Scarrier Reef
    Год выпуска: 2016
    Страна: США
    Жанр: мультфильм, семейный
    Продолжительность: 01:08:49
    Перевод: Профессиональный (дублированный)
    Русские субтитры: нет
    Режиссёр: Уильям Лау / William Lau
    Описание: Лагуна Блю получает подводные права и приглашает подруг в заплыв на субмарине. Она хочет проверить, действительно ли у школьного бассейна нет дна, а в глубинах его таится много опасностей. В погоне за острыми впечатлениями подружки заплывают слишком глубоко и попадают на территорию Большого Кошмарного рифа.
    С помощью волшебства дочери Посейдона — Поси Ри — девочки превращаются в русалок, напоминающих различных морских обитателей. Чтобы вернуться в школу, им придется побороть свои страхи и подружиться со злобным Кракеном. Лагуне же предстоит помириться с подругой детства Кала Мери.
    Доп. информация:

    Релиз группы:
    Трансляция спутникового канала:

    Семпл: https://yadi.sk/i/jE_SH8iOpHhP3
    Качество видео: DVB
    Формат видео: MPEG-TS
    Видео: MPEG4 Video (H264), 720x576@785x576 (4:3), анаморф, 25 fps, 2500 kbps
    Аудио: MPEG Audio, 2 сh, 48 kHz, 192 kbps

    MediaInfo

    G:\Monster High. Great Scarrier Reef. (2016)_DVB by SLuMeP.ts
    General #1
    ID : 1 (0x1)
    Complete name : G:\Monster High. Great Scarrier Reef. (2016)_DVB by SLuMeP.ts
    Format : MPEG-TS
    File size : 1.37 GiB
    Duration : 1h 8mn
    Overall bit rate mode : Variable
    Overall bit rate : 2 853 Kbps
    Video #67
    ID : 67 (0x43)
    Menu ID : 1 (0x1)
    Format : AVC
    Format/Info : Advanced Video Codec
    Format profile : Main@L3.0
    Format settings, CABAC : Yes
    Format settings, ReFrames : 3 frames
    Format settings, GOP : M=4, N=28
    Codec ID : 27
    Duration : 1h 8mn
    Bit rate : 2 518 Kbps
    Width : 720 pixels
    Height : 576 pixels
    Display aspect ratio : 4:3
    Frame rate : 25.000 fps
    Standard : Component
    Color space : YUV
    Chroma subsampling : 4:2:0
    Bit depth : 8 bits
    Scan type : Interlaced
    Scan order : Top Field First
    Bits/(Pixel*Frame) : 0.243
    Stream size : 1.21 GiB (88%)
    Color primaries : BT.601 PAL
    Transfer characteristics : BT.470 System B, BT.470 System G
    Matrix coefficients : BT.601
    Audio #68
    ID : 68 (0x44)
    Menu ID : 1 (0x1)
    Format : MPEG Audio
    Format version : Version 1
    Format profile : Layer 2
    Codec ID : 3
    Duration : 1h 8mn
    Bit rate mode : Constant
    Bit rate : 192 Kbps
    Channel(s) : 2 channels
    Sampling rate : 48.0 KHz
    Compression mode : Lossy
    Delay relative to video : -80ms
    Stream size : 94.5 MiB (7%)
    Language : English

    Скриншоты



    Скачать .torrent

    Скачать торрент-файл бесплатно и на максимальной скорости!

    Как скачивать? · Что такое торрент? · Рейтинг и ограничения

    !ВНИМАНИЕ!
    Сайт не распространяет и не хранит электронные версии произведений, а занимается лишь лишь предоставлением доступа к создаваемому пользователями каталогу ссылок на торрент-файлы, которые содержат только списки хеш-сумм, убедительная просьба с жалобами обращаться напрямую к пользователю. Файлы для обмена на трекере предоставлены пользователями сайта, и администрация не несёт ответственности за их содержание. Просьба не заливать файлы, защищенные авторскими правами, а также файлы нелегального содержания!


    _________________
    [Профиль] [ЛС]
    Показать сообщения:    
    Ответить на тему

    Текущее время: Сегодня, в 22:09

    Часовой пояс: GMT + 2



    Вы не можете начинать темы
    Вы не можете отвечать на сообщения
    Вы не можете редактировать свои сообщения
    Вы не можете удалять свои сообщения
    Вы не можете голосовать в опросах
    Вы не можете прикреплять файлы к сообщениям
    Вы не можете скачивать файлы