Register  ·  Log in
Forgot password?

  • Школа Монстров: Большой Кошмарный риф / Monster High: Great Scarrier Reef (Уильям Лау / William Lau) [2016, мультфильм, семейный, DVB-AVC] Dub

    Reply to topic
    Author Message


    Post 22-Feb-2016 18:40



    Школа Монстров: Большой Кошмарный риф / Monster High: Great Scarrier Reef
    Год выпуска: 2016
    Страна: США
    Жанр: мультфильм, семейный
    Продолжительность: 01:08:49
    Перевод: Профессиональный (дублированный)
    Русские субтитры: нет
    Режиссёр: Уильям Лау / William Lau
    Описание: Лагуна Блю получает подводные права и приглашает подруг в заплыв на субмарине. Она хочет проверить, действительно ли у школьного бассейна нет дна, а в глубинах его таится много опасностей. В погоне за острыми впечатлениями подружки заплывают слишком глубоко и попадают на территорию Большого Кошмарного рифа.
    С помощью волшебства дочери Посейдона — Поси Ри — девочки превращаются в русалок, напоминающих различных морских обитателей. Чтобы вернуться в школу, им придется побороть свои страхи и подружиться со злобным Кракеном. Лагуне же предстоит помириться с подругой детства Кала Мери.
    Доп. информация:

    Релиз группы:
    Трансляция спутникового канала:

    Качество видео: DVB
    Формат видео: MPEG-TS
    Видео: MPEG4 Video (H264), 720x576@785x576 (4:3), анаморф, 25 fps, 2500 kbps
    Аудио: MPEG Audio, 2 сh, 48 kHz, 192 kbps


    G:\Monster High. Great Scarrier Reef. (2016)_DVB by SLuMeP.ts
    General #1
    ID : 1 (0x1)
    Complete name : G:\Monster High. Great Scarrier Reef. (2016)_DVB by SLuMeP.ts
    Format : MPEG-TS
    File size : 1.37 GiB
    Duration : 1h 8mn
    Overall bit rate mode : Variable
    Overall bit rate : 2 853 Kbps
    Video #67
    ID : 67 (0x43)
    Menu ID : 1 (0x1)
    Format : AVC
    Format/Info : Advanced Video Codec
    Format profile : Main@L3.0
    Format settings, CABAC : Yes
    Format settings, ReFrames : 3 frames
    Format settings, GOP : M=4, N=28
    Codec ID : 27
    Duration : 1h 8mn
    Bit rate : 2 518 Kbps
    Width : 720 pixels
    Height : 576 pixels
    Display aspect ratio : 4:3
    Frame rate : 25.000 fps
    Standard : Component
    Color space : YUV
    Chroma subsampling : 4:2:0
    Bit depth : 8 bits
    Scan type : Interlaced
    Scan order : Top Field First
    Bits/(Pixel*Frame) : 0.243
    Stream size : 1.21 GiB (88%)
    Color primaries : BT.601 PAL
    Transfer characteristics : BT.470 System B, BT.470 System G
    Matrix coefficients : BT.601
    Audio #68
    ID : 68 (0x44)
    Menu ID : 1 (0x1)
    Format : MPEG Audio
    Format version : Version 1
    Format profile : Layer 2
    Codec ID : 3
    Duration : 1h 8mn
    Bit rate mode : Constant
    Bit rate : 192 Kbps
    Channel(s) : 2 channels
    Sampling rate : 48.0 KHz
    Compression mode : Lossy
    Delay relative to video : -80ms
    Stream size : 94.5 MiB (7%)
    Language : English


    Download .torrent

    Download free and at maximum speed!

    How to Download? · What is a torrent? · Ratings and Limitations

    The site does not extend and does not store electronic(digital) versions of products, and only gives access to a reference catalogue created by users on torrent-files which contain only lists of the hash-sums, the earnest entreaty, with complaints(abuse) to access directly to the user. Files for an exchange on tracker are given by users of a site, and the administration does not bear the responsibility for their maintenance. The request to not fill in the files protected by copyrights, and also files of the illegal maintenance!

    [Profile] [PM]
    Display posts from previous:    
    Reply to topic

    The time now is: Today 14:16

    All times are GMT + 3 Hours

    You cannot post new topics in this forum
    You cannot reply to topics in this forum
    You cannot edit your posts in this forum
    You cannot delete your posts in this forum
    You cannot vote in polls in this forum
    You cannot attach files in this forum
    You cannot download files in this forum