BitTorrentTracker PerecTracker.org
BitTorrentTracker PerecTracker.org
    
Регистрация  ·  Вход
 
 · 
Забыли пароль?

  • [ATV3] Головоломка / Inside Out (Роналдо Дель Кармен / Ronnie Del Carmen ) [2015, США, Мультфильм, семейный, комедия, BDRip, HD (1080p)] DUB + Original + sub (rus, eng)

    Ответить на тему
     
    Автор Сообщение

    Light

    Создавать темы 22-Фев-2016 13:28

           

    [Цитировать]

    Головоломка / Inside Out
    «Нет слов, одни эмоции»
    8.040 / 10 8.30 / 10
    -Год выпуска: 2015
    Страна: США
    Жанр: Мультфильм, семейный, комедия
    Продолжительность: 01:34:49
    Перевод: Дублированный (iTunes)
    Оригинальная аудиодорожка: Есть
    Cубтитры: Русские, Английские, Английские SDH
    Режиссёр: Роналдо Дель Кармен
    Сценарий: Пит Доктер, Мэг ЛеФов, Джош Кули
    Продюсер: Джонас Ривера, Джон Лассетер, Марк Нилсен
    Композитор: Майкл Джаккино
    Художник: Ральф Эгглстон
    Монтаж: Кевин Нолтинг
    В ролях: Эми Полер, Филлис Смит, Ричард Кайнд, Билл Хейдер, Льюис Блэк, Минди Кейлинг, Кейтлин Диас, Дайан Лэйн, Кайл МакЛоклен, Пола Паундстон
    Бюджет: $175 000 000
    Сборы в США: $356 461 711
    Сборы в мире: + $500 348 000 = $856 809 711
    Сборы в России: $18 134 698
    Мировая премьера: 18 мая 2015
    Премьера (РФ): 18 июня 2015, «WDSSPR»
    Описание: Райли — обычная 11-летняя школьница, и, как у каждого из нас, ее поведение определяют пять базовых эмоций: Радость, Печаль, Страх, Гнев и Брезгливость. Эмоции живут в сознании девочки и каждый день помогают ей справляться с проблемами, руководя всеми ее поступками. До поры до времени эмоции живут дружно, но вдруг оказывается, что Райли и ее родителям предстоит переезд из небольшого уютного городка в шумный и людный мегаполис. Каждая из эмоций считает, что именно она лучше прочих знает, что нужно делать в этой непростой ситуации, и в голове у девочки наступает полная неразбериха. Чтобы наладить жизнь в большом городе, освоиться в новой школе и подружиться с одноклассниками, эмоциям Райли предстоит снова научиться работать сообща.-Качество исходника: BDRemux (HDClub)
    Качество: BDRip
    Тип: HD (1080p)
    Контейнер: M4V
    Видео: H.264, 1920x1080, 16:9, 6 500 Kbps, 23.976 (24000/1001) fps
    Аудио 1: Русский/Дублированный (iTunes), AAC / 2.0 / 157 Kbps / 48.0 KHz
    Аудио 2: Английский/Оригинальная дорожка , AAC / 2.0 / 155 Kbps / 48.0 KHz
    Аудио 3: Украинский/Дублированный (Disney / Buena Vista), AAC / 2.0 / 158 Kbps / 48.0 KHz
    Аудио 4: Русский/Дублированный (iTunes), AC-3 / 5.1 / 640 Kbps / 48.0 KHz
    Аудио 5: Английский/Оригинальная дорожка , AC-3 / 5.1 / 640 Kbps / 48.0 KHz
    Аудио 6: Украинский/Дублированный (Disney / Buena Vista), AC-3 / 5.1 / 640 Kbps / 48.0 KHz
    Субтитры 1: Русские полные
    Субтитры 2: Английские полные
    Субтитры 3: Английские SDH
    -

    iTunes Meta Tags

    Sort Name: Inside Out
    XID: Apple:vendor_id:2015-645118
    contentID: 999607190
    Copyright: © 2015 Disney/Pixar
    Screenwriters: Пит Доктер, Мэг ЛеФов, Джош Кули
    Producers: Джонас Ривера, Джон Лассетер, Марк Нилсен
    Director: Пит Доктер, Роналдо Дель Кармен
    Cast: Эми Полер, Филлис Смит, Ричард Кайнд, Билл Хейдер, Льюис Блэк, Минди Кейлинг, Кейтлин Диас, Дайан Лэйн, Кайл МакЛоклен, Пола Паундстон
    Studio: Pixar
    Rating Annotation: Rated PG for mild thematic elements and some action.
    Rating: 3
    Long Description: Райли - обычная 11-летняя школьница, и, как у каждого из нас, ее поведение определяют пять базовых эмоций: Радость, Печаль, Страх, Гнев и Брезгливость. Эмоции живут в сознании девочки и каждый день помогают ей справляться с проблемами, руководя всеми ее поступками. До поры до времени эмоции живут дружно, но вдруг оказывается, что Райли и ее родителям предстоит переезд из небольшого уютного городка в шумный и людный мегаполис. Каждая из эмоций считает, что именно она лучше прочих знает, что нужно делать в этой непростой ситуации, и в голове у девочки наступает полная неразбериха. Чтобы наладить жизнь в большом городе, освоиться в новой школе и подружиться с одноклассниками, эмоциям Райли предстоит снова научиться работать сообща.
    Description: Райли - обычная 11-летняя школьница, и, как у каждого из нас, ее поведение определяют пять базовых эмоций: Радость, Печаль, Страх, Гнев и Брезгливость. Эмоции живут в сознании девочки и каждый день помогают ей справляться с проблемами, руководя всеми ее поступками. До поры до времени эмоции живут дружно, но вдруг...
    Release Date: 2015-05-18T08:00:00Z
    Genre: Kids & Family
    Artist: Pete Docter
    Name: Inside Out (2015)

    MediaInfo

    General
    Complete name : /Users/imac/HandBrake/Inside Out (1080p HD).m4v
    Format : MPEG-4
    Codec ID : M4V  (M4V /M4A /mp42/isom)
    File size : 5.90 GiB
    Duration : 1h 34mn
    Overall bit rate mode : Variable
    Overall bit rate : 8 902 Kbps
    Movie name : Inside Out (2015)
    Performer : Pete Docter
    Director : Пит Доктер / Роналдо Дель Кармен
    Actor : Эми Полер / Филлис Смит / Ричард Кайнд / Билл Хейдер / Льюис Блэк / Минди Кейлинг / Кейтлин Диас / Дайан Лэйн / Кайл МакЛоклен / Пола Паундстон
    Screenplay by : Пит Доктер / Мэг ЛеФов / Джош Кули
    Producer : Джонас Ривера / Джон Лассетер / Марк Нилсен
    Production studio : Pixar
    Genre : Kids & Family
    ContentType : Short Film
    Description : Райли - обычная 11-летняя школьница, и, как у каждого из нас, ее поведение определяют пять базовых эмоций: Радость, Печаль, Страх, Гнев и Брезгливость. Эмоции живут в сознании девочки и каждый день помогают ей справляться с проблемами, руководя всеми ее поступками. До поры до времени эмоции живут дружно, но вдруг...
    Recorded date : UTC 2015-05-18 08:00:00
    Encoded date : UTC 2016-02-22 09:41:34
    Tagged date : UTC 2016-02-22 09:44:29
    Copyright : © 2015 Disney/Pixar
    Cover : Yes
    Rating : None
    Title/Sort : Inside Out
    LongDescription : Райли - обычная 11-летняя школьница, и, как у каждого из нас, ее поведение определяют пять базовых эмоций: Радость, Печаль, Страх, Гнев и Брезгливость. Эмоции живут в сознании девочки и каждый день помогают ей справляться с проблемами, руководя всеми ее поступками. До поры до времени эмоции живут дружно, но вдруг оказывается, что Райли и ее родителям предстоит переезд из небольшого уютного городка в шумный и людный мегаполис. Каждая из эмоций считает, что именно она лучше прочих знает, что нужно делать в этой непростой ситуации, и в голове у девочки наступает полная неразбериха. Чтобы наладить жизнь в большом городе, освоиться в новой школе и подружиться с одноклассниками, эмоциям Райли предстоит снова научиться работать сообща.
    AppleStoreCatalogID : 999607190
    Vendor : Apple:vendor_id:2015-645118
    ContentRating : mpaa|PG|200|Rated PG for mild thematic elements and some action.
    Video #1
    ID : 1
    Format : AVC
    Format/Info : Advanced Video Codec
    Format profile : High@L4
    Format settings, CABAC : Yes
    Format settings, ReFrames : 4 frames
    Codec ID : avc1
    Codec ID/Info : Advanced Video Coding
    Duration : 1h 34mn
    Source duration : 1h 34mn
    Bit rate : 6 500 Kbps
    Width : 1 920 pixels
    Height : 1 080 pixels
    Display aspect ratio : 16:9
    Frame rate mode : Variable
    Frame rate : 23.976 (24000/1001) fps
    Minimum frame rate : 23.974 fps
    Maximum frame rate : 23.981 fps
    Color space : YUV
    Chroma subsampling : 4:2:0
    Bit depth : 8 bits
    Scan type : Progressive
    Bits/(Pixel*Frame) : 0.131
    Stream size : 4.30 GiB (73%)
    Source stream size : 4.30 GiB (73%)
    Title : Main Program
    Writing library : x264 core 142 r2479 dd79a61
    Encoding settings : cabac=1 / ref=4 / deblock=1:-2:-2 / analyse=0x3:0x133 / me=umh / subme=10 / psy=1 / psy_rd=1.00:0.15 / mixed_ref=1 / me_range=32 / chroma_me=1 / trellis=2 / 8x8dct=1 / cqm=0 / deadzone=21,11 / fast_pskip=0 / chroma_qp_offset=-3 / threads=36 / lookahead_threads=8 / sliced_threads=0 / nr=0 / decimate=0 / interlaced=0 / bluray_compat=0 / constrained_intra=0 / bframes=16 / b_pyramid=2 / b_adapt=2 / b_bias=0 / direct=3 / weightb=1 / open_gop=0 / weightp=2 / keyint=240 / keyint_min=24 / scenecut=40 / intra_refresh=0 / rc_lookahead=60 / rc=2pass / mbtree=1 / bitrate=6500 / ratetol=1.0 / qcomp=0.70 / qpmin=0 / qpmax=69 / qpstep=4 / cplxblur=20.0 / qblur=0.5 / vbv_maxrate=25000 / vbv_bufsize=25000 / nal_hrd=none / filler=0 / ip_ratio=1.40 / aq=1:1.00
    Language : English
    Encoded date : UTC 2016-02-22 09:41:34
    Tagged date : UTC 2016-02-22 09:41:50
    Color range : Limited
    Color primaries : BT.709
    Transfer characteristics : BT.709
    Matrix coefficients : BT.709
    Menus : 11,12
    Video #2
    ID : 12
    Format : JPEG
    Codec ID : jpeg
    Duration : 1h 34mn
    Bit rate mode : Variable
    Bit rate : 1 992 bps
    Width : 640 pixels
    Height : 360 pixels
    Display aspect ratio : 16:9
    Frame rate mode : Variable
    Frame rate : 0.005 fps
    Minimum frame rate : 0.002 fps
    Maximum frame rate : 0.013 fps
    Color space : YUV
    Chroma subsampling : 4:2:0
    Bit depth : 8 bits
    Compression mode : Lossy
    Bits/(Pixel*Frame) : 1.729
    Stream size : 1.33 MiB (0%)
    Title : Chapter Images
    Language : English
    Default : No
    Encoded date : UTC 2016-02-22 09:42:03
    Tagged date : UTC 2016-02-22 09:42:04
    Menu For : 1
    Audio #1
    ID : 2
    Format : AAC
    Format/Info : Advanced Audio Codec
    Format profile : LC
    Codec ID : 40
    Duration : 1h 34mn
    Bit rate mode : Variable
    Bit rate : 157 Kbps
    Maximum bit rate : 243 Kbps
    Channel(s) : 2 channels
    Channel positions : Front: L R
    Sampling rate : 48.0 KHz
    Frame rate : 46.875 fps (1024 spf)
    Compression mode : Lossy
    Stream size : 107 MiB (2%)
    Title : Russian Stereo
    Language : Russian
    Default : Yes
    Alternate group : 1
    Encoded date : UTC 2016-02-22 09:41:34
    Tagged date : UTC 2016-02-22 09:41:52
    Fallback From : 5
    Menus : 11
    Audio #2
    ID : 3
    Format : AAC
    Format/Info : Advanced Audio Codec
    Format profile : LC
    Codec ID : 40
    Duration : 1h 34mn
    Bit rate mode : Variable
    Bit rate : 155 Kbps
    Maximum bit rate : 266 Kbps
    Channel(s) : 2 channels
    Channel positions : Front: L R
    Sampling rate : 48.0 KHz
    Frame rate : 46.875 fps (1024 spf)
    Compression mode : Lossy
    Stream size : 105 MiB (2%)
    Title : English Stereo
    Language : English
    Default : No
    Alternate group : 1
    Encoded date : UTC 2016-02-22 09:41:34
    Tagged date : UTC 2016-02-22 09:41:52
    Fallback From : 6
    Audio #3
    ID : 4
    Format : AAC
    Format/Info : Advanced Audio Codec
    Format profile : LC
    Codec ID : 40
    Duration : 1h 34mn
    Bit rate mode : Variable
    Bit rate : 158 Kbps
    Maximum bit rate : 255 Kbps
    Channel(s) : 2 channels
    Channel positions : Front: L R
    Sampling rate : 48.0 KHz
    Frame rate : 46.875 fps (1024 spf)
    Compression mode : Lossy
    Stream size : 107 MiB (2%)
    Title : Ukrainian Stereo
    Language : Ukrainian
    Default : No
    Alternate group : 1
    Encoded date : UTC 2016-02-22 09:41:34
    Tagged date : UTC 2016-02-22 09:41:52
    Fallback From : 7
    Audio #4
    ID : 5
    Format : AC-3
    Format/Info : Audio Coding 3
    Mode extension : CM (complete main)
    Format settings, Endianness : Big
    Codec ID : ac-3
    Duration : 1h 34mn
    Bit rate mode : Constant
    Bit rate : 640 Kbps
    Channel(s) : 6 channels
    Channel positions : Front: L C R, Side: L R, LFE
    Sampling rate : 48.0 KHz
    Frame rate : 31.250 fps (1536 spf)
    Bit depth : 16 bits
    Compression mode : Lossy
    Stream size : 434 MiB (7%)
    Title : Russian DD 5.1
    Language : Russian
    Default : Inherited From: 2
    Alternate group : 1
    Encoded date : UTC 2016-02-22 09:41:34
    Tagged date : UTC 2016-02-22 09:41:41
    Fallback To : 2
    Audio #5
    ID : 6
    Format : AC-3
    Format/Info : Audio Coding 3
    Mode extension : CM (complete main)
    Format settings, Endianness : Big
    Codec ID : ac-3
    Duration : 1h 34mn
    Bit rate mode : Constant
    Bit rate : 640 Kbps
    Channel(s) : 6 channels
    Channel positions : Front: L C R, Side: L R, LFE
    Sampling rate : 48.0 KHz
    Frame rate : 31.250 fps (1536 spf)
    Bit depth : 16 bits
    Compression mode : Lossy
    Stream size : 434 MiB (7%)
    Title : English DD 5.1
    Language : English
    Default : No
    Alternate group : 1
    Encoded date : UTC 2016-02-22 09:41:34
    Tagged date : UTC 2016-02-22 09:41:41
    Fallback To : 3
    Audio #6
    ID : 7
    Format : AC-3
    Format/Info : Audio Coding 3
    Mode extension : CM (complete main)
    Format settings, Endianness : Big
    Codec ID : ac-3
    Duration : 1h 34mn
    Bit rate mode : Constant
    Bit rate : 640 Kbps
    Channel(s) : 6 channels
    Channel positions : Front: L C R, Side: L R, LFE
    Sampling rate : 48.0 KHz
    Frame rate : 31.250 fps (1536 spf)
    Bit depth : 16 bits
    Compression mode : Lossy
    Stream size : 434 MiB (7%)
    Title : Ukrainian DD 5.1
    Language : Ukrainian
    Default : No
    Alternate group : 1
    Encoded date : UTC 2016-02-22 09:41:34
    Tagged date : UTC 2016-02-22 09:41:41
    Fallback To : 4
    Text #1
    ID : 8
    Format : Timed Text
    Muxing mode : sbtl
    Codec ID : tx3g
    Duration : 1h 27mn
    Bit rate mode : Variable
    Bit rate : 119 bps
    Stream size : 76.7 KiB (0%)
    Title : Russian full
    Language : Russian
    Default : Yes
    Forced : No
    Alternate group : 2
    Encoded date : UTC 2016-02-22 09:41:34
    Tagged date : UTC 2016-02-22 09:41:34
    Text #2
    ID : 9
    Format : Timed Text
    Muxing mode : sbtl
    Codec ID : tx3g
    Duration : 1h 27mn
    Bit rate mode : Variable
    Bit rate : 85 bps
    Stream size : 54.7 KiB (0%)
    Title : English full
    Language : English
    Default : No
    Forced : No
    Alternate group : 2
    Encoded date : UTC 2016-02-22 09:41:34
    Tagged date : UTC 2016-02-22 09:41:34
    Text #3
    ID : 10
    Format : Timed Text
    Muxing mode : sbtl
    Codec ID : tx3g
    Duration : 1h 27mn
    Bit rate mode : Variable
    Bit rate : 90 bps
    Stream size : 57.7 KiB (0%)
    Title : English SDH
    Language : English
    Default : No
    Forced : No
    Alternate group : 2
    Encoded date : UTC 2016-02-22 09:41:34
    Tagged date : UTC 2016-02-22 09:41:34
    Menu #1
    00:00:00.000 : Chapter 1
    00:07:22.776 : Chapter 2
    00:11:36.863 : Chapter 3
    00:15:45.862 : Chapter 4
    00:20:02.326 : Chapter 5
    00:25:21.520 : Chapter 6
    00:26:47.147 : Chapter 7
    00:30:10.267 : Chapter 8
    00:34:45.083 : Chapter 9
    00:36:01.493 : Chapter 10
    00:37:44.679 : Chapter 11
    00:41:26.734 : Chapter 12
    00:43:35.696 : Chapter 13
    00:45:19.592 : Chapter 14
    00:46:51.934 : Chapter 15
    00:50:02.541 : Chapter 16
    00:51:33.674 : Chapter 17
    00:56:12.244 : Chapter 18
    01:00:03.767 : Chapter 19
    01:01:17.924 : Chapter 20
    01:03:50.452 : Chapter 21
    01:06:27.275 : Chapter 22
    01:11:15.855 : Chapter 23
    01:13:39.624 : Chapter 24
    01:15:38.200 : Chapter 25
    01:20:00.421 : Chapter 26
    01:23:56.448 : Chapter 27
    01:26:17.672 : Chapter 28
    Menu #2
    ID : 11
    Codec ID : text
    Duration : 1h 34mn
    Language : English
    Encoded date : UTC 2016-02-22 09:41:52
    Tagged date : UTC 2016-02-22 09:41:52
    Menu For : 2,1
    00:00:00.000 : Chapter 1
    00:07:22.776 : Chapter 2
    00:11:36.863 : Chapter 3
    00:15:45.862 : Chapter 4
    00:20:02.326 : Chapter 5
    00:25:21.520 : Chapter 6
    00:26:47.147 : Chapter 7
    00:30:10.267 : Chapter 8
    00:34:45.083 : Chapter 9
    00:36:01.493 : Chapter 10
    00:37:44.679 : Chapter 11
    00:41:26.734 : Chapter 12
    00:43:35.696 : Chapter 13
    00:45:19.592 : Chapter 14
    00:46:51.934 : Chapter 15
    00:50:02.541 : Chapter 16
    00:51:33.674 : Chapter 17
    00:56:12.244 : Chapter 18
    01:00:03.767 : Chapter 19
    01:01:17.924 : Chapter 20
    01:03:50.452 : Chapter 21
    01:06:27.275 : Chapter 22
    01:11:15.855 : Chapter 23
    01:13:39.624 : Chapter 24
    01:15:38.200 : Chapter 25
    01:20:00.421 : Chapter 26
    01:23:56.448 : Chapter 27
    01:26:17.672 : Chapter 28
    Bit rate mode : VBR

    x264 лог

    x264 [info]: frame I:1167  Avg QP:15.13  size:251769
    x264 [info]: frame P:45855 Avg QP:18.91  size: 57960
    x264 [info]: frame B:89397 Avg QP:20.06  size: 18688
    x264 [info]: consecutive B-frames: 11.4%  4.5% 21.5% 32.8% 17.6% 10.6%  0.4%  0.3%  0.1%  0.1%  0.0%  0.0%  0.0%  0.0%  0.0%  0.1%  0.4%
    x264 [info]: mb I  I16..4: 22.8% 58.7% 18.5%
    x264 [info]: mb P  I16..4:  6.9% 12.2%  1.0%  P16..4: 47.0% 11.0% 10.1%  0.2%  0.1%    skip:11.5%
    x264 [info]: mb B  I16..4:  1.3%  1.4%  0.1%  B16..8: 37.2%  5.1%  1.3%  direct: 3.9%  skip:49.6%  L0:45.5% L1:44.0% BI:10.5%
    x264 [info]: 8x8 transform intra:58.6% inter:62.1%
    x264 [info]: direct mvs  spatial:95.0% temporal:5.0%
    x264 [info]: coded y,uvDC,uvAC intra: 58.8% 80.5% 54.7% inter: 15.3% 22.7% 8.6%
    x264 [info]: i16 v,h,dc,p: 53% 11% 12% 24%
    x264 [info]: i8 v,h,dc,ddl,ddr,vr,hd,vl,hu: 14% 15% 16%  7%  9%  9% 10%  9% 11%
    x264 [info]: i4 v,h,dc,ddl,ddr,vr,hd,vl,hu: 14% 14% 10%  7% 12% 11% 12%  8% 10%
    x264 [info]: i8c dc,h,v,p: 43% 25% 17% 14%
    x264 [info]: Weighted P-Frames: Y:2.0% UV:0.8%
    x264 [info]: ref P L0: 63.2%  9.8% 17.2%  7.2%  2.5%  0.1%
    x264 [info]: ref B L0: 86.3% 10.7%  3.0%
    x264 [info]: ref B L1: 92.8%  7.2%
    x264 [info]: kb/s:6498.98

    Скриншоты

    -

    Релиз подготовлен для просмотра на Apple TV, iPad, iPhone, iPod Touch.
    Для просмотра данного релиза на компьютере с ОС Windows рекомендуется использовать VLC media player
    Скачать .torrent

    Скачать торрент-файл бесплатно и на максимальной скорости!

    Как скачивать? · Что такое торрент? · Рейтинг и ограничения

    !ВНИМАНИЕ!
    Сайт не распространяет и не хранит электронные версии произведений, а занимается лишь лишь предоставлением доступа к создаваемому пользователями каталогу ссылок на торрент-файлы, которые содержат только списки хеш-сумм, убедительная просьба с жалобами обращаться напрямую к пользователю. Файлы для обмена на трекере предоставлены пользователями сайта, и администрация не несёт ответственности за их содержание. Просьба не заливать файлы, защищенные авторскими правами, а также файлы нелегального содержания!


    _________________
    [Профиль] [ЛС]
    Показать сообщения:    
    Ответить на тему

    Текущее время: Сегодня, в 07:10

    Часовой пояс: GMT + 2



    Вы не можете начинать темы
    Вы не можете отвечать на сообщения
    Вы не можете редактировать свои сообщения
    Вы не можете удалять свои сообщения
    Вы не можете голосовать в опросах
    Вы не можете прикреплять файлы к сообщениям
    Вы не можете скачивать файлы