BitTorrentTracker PerecTracker.org
BitTorrentTracker PerecTracker.org
    
Регистрация  ·  Вход
 
 · 
Забыли пароль?

  • Самолеты: Огонь и вода / Planes: Fire and Rescue (Роберт Ганнавей / Roberts Gannaway) [2014, США, комедия, приключения, BDRip-AVC] Dub (Blu-ray) + Dub (Ukr Walt Disney) + Rus, Eng Sub + Original Eng

    Ответить на тему
     
    Автор Сообщение

    rechyn

    Создавать темы 22-Фев-2016 05:10

           

    [Цитировать]

    Самолеты: Огонь и вода
    Planes: Fire and Rescue
    «When others fly out, heroes fly in»
    -Страна: США
    Жанр: комедия, приключения
    Продолжительность: 01:23:38
    Год выпуска: 2014
    Перевод: Профессиональный (дублированный) Rus Blu-ray
    Перевод 2: Профессиональный (дублированный) Ukr Walt Disney
    Русские субтитры: есть
    Режиссёр: Роберт Ганнавей / Roberts Gannaway
    Роли озвучивали: Дейн Кук, Эд Харрис, Джули Боуэн, Кертис Армстронг, Джон Майкл Хиггинс, Хэл Холбрук, Уэс Стьюди, Брэд Гэррет, Тери Хэтчер, Стейси Кич-Описание:Самолетик Дасти, который стал уже легендой воздушных гонок, вскоре узнает, что его двигатель сильно повреждён, и он никогда не может больше участвовать в скоростных воздушных гонках. Дасти ищет себе новое занятие и знакомится с мужественной пожарно-спасательной командой, которой руководит ветеран авиации вертолёт по имени Ренждер. Узнав, насколько тяжела и опасна работа пожарной авиации, Дасти поймёт, что такое настоящий героизм и самоотдача, и сам захочет стать спасателем.-Сэмпл

    IMDb: 5.80 (4490)
    Качество: BDRip-AVC Planes.2014.BDRemux.(1080p).ExKinoRay
    Формат: MKV
    Видео: AVC 2645 Kbps A 1184 x 496 (2.387) 23.976 fps
    Аудио: AC-3 448 Kbps 6 channels, 48.0 KHz Rus DUB Blu-ray
    Аудио 2: AC-3 448 Kbps 6 channels, 48.0 KHz Ukr DUB Walt Disney
    Аудио 3: AC-3 448 Kbps 6 channels, 48.0 KHz Eng
    Субтитры: Rus, Eng
    MI | Log

    Log

    x264 [info]: frame I:1083 Avg QP:13.69 size:123085
    x264 [info]: frame P:32865 Avg QP:16.11 size: 27202
    x264 [info]: frame B:86376 Avg QP:18.90 size: 7883
    x264 [info]: consecutive B-frames: 4.2% 6.8% 16.9% 30.9% 18.6% 16.3% 2.8% 1.5% 0.6% 0.4% 0.2% 0.2% 0.5%
    x264 [info]: mb I I16..4: 9.4% 53.5% 37.2%
    x264 [info]: mb P I16..4: 1.1% 12.9% 2.1% P16..4: 21.2% 23.1% 12.1% 3.5% 0.7% skip:23.2%
    x264 [info]: mb B I16..4: 0.2% 1.6% 0.2% B16..8: 23.5% 16.5% 3.3% direct: 5.2% skip:49.6% L0:37.5% L1:44.0% BI:18.4%
    x264 [info]: 8x8 transform intra:76.0% inter:47.9%
    x264 [info]: coded y,uvDC,uvAC intra: 86.3% 91.6% 78.1% inter: 18.3% 18.2% 8.7%
    x264 [info]: i16 v,h,dc,p: 11% 15% 7% 67%
    x264 [info]: i8 v,h,dc,ddl,ddr,vr,hd,vl,hu: 9% 15% 10% 8% 10% 9% 13% 10% 17%
    x264 [info]: i4 v,h,dc,ddl,ddr,vr,hd,vl,hu: 10% 21% 6% 7% 11% 10% 13% 8% 14%
    x264 [info]: i8c dc,h,v,p: 40% 31% 14% 15%
    x264 [info]: Weighted P-Frames: Y:4.7% UV:3.4%
    x264 [info]: ref P L0: 57.4% 11.2% 13.4% 5.1% 3.4% 2.8% 1.9% 1.2% 0.9% 0.9% 0.7% 0.8% 0.2% 0.0%
    x264 [info]: ref B L0: 78.5% 9.3% 5.3% 1.9% 1.8% 1.0% 0.8% 0.5% 0.5% 0.3% 0.2%
    x264 [info]: ref B L1: 93.0% 7.0%
    x264 [info]: kb/s:2723.01
    x264 [total]: encoded 120324 frames, 10.50 fps, 2723.01 kb/s, duration 3:10:56.01
    Format : Matroska
    Format version : Version 4 / Version 2
    File size : 2.38 GiB
    Duration : 1h 23mn
    Overall bit rate : 4 070 Kbps
    Encoded date : UTC 2016-02-21 22:35:47
    Writing application : mkvmerge v6.7.0 ('Back to the Ground') 32bit built on Jan 8 2014 15:03:17
    Writing library : libebml v1.3.0 + libmatroska v1.4.1
    Video
    ID : 1
    Format : AVC
    Format/Info : Advanced Video Codec
    Format profile : High@L4.1
    Format settings, CABAC : Yes
    Format settings, ReFrames : 12 frames
    Codec ID : V_MPEG4/ISO/AVC
    Duration : 1h 23mn
    Bit rate : 2 645 Kbps
    Width : 1 184 pixels
    Height : 496 pixels
    Display aspect ratio : 2.40:1
    Frame rate mode : Constant
    Frame rate : 23.976 fps
    Color space : YUV
    Chroma subsampling : 4:2:0
    Bit depth : 8 bits
    Scan type : Progressive
    Bits/(Pixel*Frame) : 0.188
    Stream size : 1.55 GiB (65%)
    Title : Planes: Fire and Rescue (2014) [perectracker.org]
    Writing library : x264 core 142 r2453kMod ea0ca51
    Encoding settings : cabac=1 / ref=12 / deblock=1:-2:-2 / analyse=0x3:0x133 / me=umh / subme=11 / psy=1 / fade_compensate=0.00 / psy_rd=1.00:0.05 / mixed_ref=1 / me_range=32 / chroma_me=1 / trellis=2 / 8x8dct=1 / cqm=0 / deadzone=21,11 / fast_pskip=0 / chroma_qp_offset=-3 / threads=12 / lookahead_threads=3 / sliced_threads=0 / nr=0 / decimate=1 / interlaced=0 / bluray_compat=0 / constrained_intra=0 / fgo=0 / bframes=12 / b_pyramid=2 / b_adapt=2 / b_bias=0 / direct=1 / weightb=1 / open_gop=0 / weightp=2 / keyint=250 / keyint_min=23 / scenecut=40 / intra_refresh=0 / rc_lookahead=60 / rc=crf / mbtree=0 / crf=17.0000 / qcomp=0.60 / qpmin=0 / qpmax=69 / qpstep=4 / vbv_maxrate=25000 / vbv_bufsize=50000 / crf_max=0.0 / nal_hrd=none / filler=0 / ip_ratio=1.40 / pb_ratio=1.30 / aq=3:0.90
    Language : English
    Default : Yes
    Forced : No
    Audio #1
    ID : 2
    Format : AC-3
    Format/Info : Audio Coding 3
    Mode extension : CM (complete main)
    Format settings, Endianness : Big
    Codec ID : A_AC3
    Duration : 1h 23mn
    Bit rate mode : Constant
    Bit rate : 448 Kbps
    Channel(s) : 6 channels
    Channel positions : Front: L C R, Side: L R, LFE
    Sampling rate : 48.0 KHz
    Compression mode : Lossy
    Stream size : 268 MiB (11%)
    Title : DUB [Blu-ray|]
    Language : Russian
    Default : Yes
    Forced : No
    Audio #2
    ID : 3
    Format : AC-3
    Format/Info : Audio Coding 3
    Mode extension : CM (complete main)
    Format settings, Endianness : Big
    Codec ID : A_AC3
    Duration : 1h 23mn
    Bit rate mode : Constant
    Bit rate : 448 Kbps
    Channel(s) : 6 channels
    Channel positions : Front: L C R, Side: L R, LFE
    Sampling rate : 48.0 KHz
    Compression mode : Lossy
    Stream size : 268 MiB (11%)
    Title : DUB [Walt Disney]
    Language : Ukrainian
    Default : No
    Forced : No
    Audio #3
    ID : 4
    Format : AC-3
    Format/Info : Audio Coding 3
    Mode extension : CM (complete main)
    Format settings, Endianness : Big
    Codec ID : A_AC3
    Duration : 1h 23mn
    Bit rate mode : Constant
    Bit rate : 448 Kbps
    Channel(s) : 6 channels
    Channel positions : Front: L C R, Side: L R, LFE
    Sampling rate : 48.0 KHz
    Compression mode : Lossy
    Stream size : 268 MiB (11%)
    Title : Original
    Language : English
    Default : No
    Forced : No
    Text #1
    ID : 5
    Format : UTF-8
    Codec ID : S_TEXT/UTF8
    Codec ID/Info : UTF-8 Plain Text
    Title : Full
    Language : Russian
    Default : No
    Forced : No
    Text #2
    ID : 6
    Format : UTF-8
    Codec ID : S_TEXT/UTF8
    Codec ID/Info : UTF-8 Plain Text
    Title : Full
    Language : English
    Default : No
    Forced : No
    Text #3
    ID : 7
    Format : UTF-8
    Codec ID : S_TEXT/UTF8
    Codec ID/Info : UTF-8 Plain Text
    Title : SDH
    Language : English
    Default : No
    Forced : No
    Menu
    00:00:00.000 : en:00:00:00.000
    00:03:27.791 : en:00:03:27.791
    00:07:48.593 : en:00:07:48.593
    00:12:36.005 : en:00:12:36.005
    00:17:38.849 : en:00:17:38.849
    00:22:55.165 : en:00:22:55.165
    00:27:45.289 : en:00:27:45.289
    00:32:37.205 : en:00:32:37.205
    00:35:24.789 : en:00:35:24.789
    00:38:31.017 : en:00:38:31.017
    00:41:38.287 : en:00:41:38.287
    00:47:21.046 : en:00:47:21.046
    00:55:00.714 : en:00:55:00.714
    00:57:29.029 : en:00:57:29.029
    01:00:33.880 : en:01:00:33.880
    01:05:22.710 : en:01:05:22.710
    01:09:07.685 : en:01:09:07.685
    01:13:55.264 : en:01:13:55.264[/pre]

    Скриншоты

    Source
    Скачать .torrent

    Скачать торрент-файл бесплатно и на максимальной скорости!

    Как скачивать? · Что такое торрент? · Рейтинг и ограничения

    !ВНИМАНИЕ!
    Сайт не распространяет и не хранит электронные версии произведений, а занимается лишь лишь предоставлением доступа к создаваемому пользователями каталогу ссылок на торрент-файлы, которые содержат только списки хеш-сумм, убедительная просьба с жалобами обращаться напрямую к пользователю. Файлы для обмена на трекере предоставлены пользователями сайта, и администрация не несёт ответственности за их содержание. Просьба не заливать файлы, защищенные авторскими правами, а также файлы нелегального содержания!


    _________________
    [Профиль] [ЛС]
    Показать сообщения:    
    Ответить на тему

    Текущее время: Сегодня, в 23:51

    Часовой пояс: GMT + 2



    Вы не можете начинать темы
    Вы не можете отвечать на сообщения
    Вы не можете редактировать свои сообщения
    Вы не можете удалять свои сообщения
    Вы не можете голосовать в опросах
    Вы не можете прикреплять файлы к сообщениям
    Вы не можете скачивать файлы