BitTorrentTracker PerecTracker.org
BitTorrentTracker PerecTracker.org
    
Регистрация  ·  Вход
 
 · 
Забыли пароль?

  • Лара Крофт: Расхитительница гробниц 2 – Колыбель жизни / Lara Croft Tomb Raider: The Cradle of Life (Ян де Бонт / Jan de Bont) [2003, США, Германия, Япония, фэнтези, приключения, BDRip 720p] Dub + MVO + DVO + 2x AVO + Original Eng + Sub Rus, Eng

    Ответить на тему
     
    Автор Сообщение

    Flirldrerve

    Создавать темы 22-Фев-2016 00:58

           

    [Цитировать]

    Лара Крофт: Расхитительница гробниц 2 – Колыбель жизни / Lara Croft Tomb Raider: The Cradle of Life-Год выпуска: 2003
    Выпущено: США, Германия, Япония, Великобритания
    Жанр: фэнтези, боевик, триллер, приключения
    Продолжительность: 01:57:23
    Перевод: Профессиональный (полное дублирование)
    + Профессиональный (двухголосый, закадровый) П.Гланц и И.Королева
    + Профессиональный (многоголосый, закадровый)
    + Авторский одноголосый Ю.Живов
    + Авторский одноголосый А.Гаврилов
    Оригинальная звуковая дорожка: English
    Субтитры: Russian (Blu-ray TWN), Russian (-( VPh )-), English-Режиссер: Ян де Бонт / Jan de Bont
    В ролях: Анджелина Джоли, Жерар Батлер, Киаран Хиндс, Крис Барри, Ной Тейлор, Джимон Хонсу, Тиль Швайгер, Саймон Ям, Теренс Йин, Дэниэл Калтагорин, Фабиано Мартелл, Джонатан Койн, Роберт Кавана, Ронан Вайберт, Lenny Juma, Raymond Ofula, Hezron Ajuala, Alfred Kalipso, Vincent Mbaya, Эйс Йонамайн, Robert Atiko
    О фильме: Во второй серии приключений прекрасной расхитительницы гробниц Лары Крофт география действия становится ещё обширней и экзотичней. Ларе предстоит побывать в Греции, Кении, Танзании, Гонконге и Китае, и, разумеется, не для того, чтобы оценить местные красоты.
    Она будет противостоять злодею-интеллектуалу Чену Ло, возглавляющему китайский преступный синдикат. Ло, искусный бизнесмен и хладнокровный убийца, замыслил украсть мифический Ящик Пандоры из ушедшего под воду храма, чтобы использовать его как оружие Судного дня...-RightSiZE!
    Релиз:
    Формат: MKV
    Тип релиза: BDRip 720p
    Источник: Lara Croft Tomb Raider: The Cradle of Life 2003 1080p TWN Blu-ray AVC DTS-HD MA 5.1-TTG
    Видео: 1280x546 at 23.976 fps, CRF 17.5, L4.1, ~6 535 kbps avg
    Аудио #1: Russian: 48 kHz, AC3, 3/2 (L,C,R,l,r) + LFE ch, ~448.00 kbps avg |Дубляж|
    Аудио #2: Russian: 48 kHz, DTS, 3/2 (L,C,R,l,r) + LFE ch, ~768.00 kbps avg |Двухголосый закадровый, П. Гланц и И. Королёва|
    Аудио #3: Russian: 48 kHz, AC3, 3/2 (L,C,R,l,r) + LFE ch, ~384.00 kbps avg |Многоголосый закадровый|
    Аудио #4: Russian: 48 kHz, AC3, 3/2 (L,C,R,l,r) + LFE ch, ~448.00 kbps avg |Одноголосый закадровый, Ю. Живов|
    Аудио #5: Russian: 48 kHz, AC3, 3/2 (L,C,R,l,r) + LFE ch, ~448.00 kbps avg |Одноголосый закадровый, А.Гаврилов|
    Аудио #6: Ukrainian: 48 kHz, AC3, 2/0 (L,R) ch, ~192.00 kbps avg |Многоголосый закадровый, ICTV|
    Аудио #7: Ukrainian: 48 kHz, AC3, 1/0 (C) ch, ~192.00 kbps avg |Многоголосый закадровый, Новый канал|
    Аудио #8: English: 48 kHz, DTS, 3/2 (L,C,R,l,r) + LFE ch, ~1536.00 kbps avg
    Аудио #9: English: 48 kHz, AAC, 2/0 (L,R) ch, |Commentary|
    Семпл-

    Source vs Encode








    -

    RightSiZE vs HDv0T





    -

    mInfo

    Формат : Matroska
    Версия формата : Version 4 / Version 2
    Размер файла : 8,98 Гбайт
    Продолжительность : 1 ч. 57 м.
    Общий поток : 11,0 Мбит/сек
    Название фильма : Lara Croft Tomb Raider: The Cradle of Life (2003)
    Дата кодирования : UTC 2016-02-17 19:02:10
    Программа кодирования : mkvmerge v7.0.0 ('Where We Going') 32bit built on Jun 9 2014 15:08:34
    Библиотека кодирования : libebml v1.3.0 + libmatroska v1.4.1
    _STATISTICS_WRITING_APP : mkvmerge v7.0.0 ('Where We Going') 32bit built on Jun 9 2014 15:08:34
    _STATISTICS_WRITING_DATE_UTC : 2016-02-17 19:02:10
    _STATISTICS_TAGS : BPS DURATION NUMBER_OF_FRAMES NUMBER_OF_BYTES
    DURATION : 01:57:20.032000000
    NUMBER_OF_FRAMES : 220001
    NUMBER_OF_BYTES : 394241792
    Видео
    Идентификатор : 1
    Формат : AVC
    Формат/Информация : Advanced Video Codec
    Профиль формата : High@L4.1
    Параметр CABAC формата : Да
    Параметр ReFrames формата : 11 кадров
    Идентификатор кодека : V_MPEG4/ISO/AVC
    Продолжительность : 1 ч. 57 м.
    Битрейт : 6350 Кбит/сек
    Ширина : 1280 пикселей
    Высота : 546 пикселей
    Соотношение сторон : 2,35:1
    Режим частоты кадров : Постоянный
    Частота кадров : 23,976 кадра/сек
    Цветовое пространство : YUV
    Субдискретизация насыщенности : 4:2:0
    Битовая глубина : 8 бит
    Тип развёртки : Прогрессивная
    Бит/(Пиксели*Кадры) : 0.379
    Размер потока : 5,21 Гбайт (58%)
    Библиотека кодирования : x264 core 138 r2358 9e941d1
    Настройки программы : cabac=1 / ref=11 / deblock=1:-3:-3 / analyse=0x3:0x113 / me=umh / subme=9 / psy=1 / psy_rd=1.00:0.00 / mixed_ref=1 / me_range=16 / chroma_me=1 / trellis=2 / 8x8dct=1 / cqm=1 / deadzone=21,11 / fast_pskip=0 / chroma_qp_offset=-1 / threads=8 / lookahead_threads=1 / sliced_threads=0 / nr=0 / decimate=1 / interlaced=0 / bluray_compat=0 / constrained_intra=0 / bframes=7 / b_pyramid=2 / b_adapt=2 / b_bias=0 / direct=3 / weightb=1 / open_gop=0 / weightp=2 / keyint=230 / keyint_min=23 / scenecut=40 / intra_refresh=0 / rc_lookahead=40 / rc=crf / mbtree=0 / crf=17.5 / qcomp=0.60 / qpmin=2 / qpmax=69 / qpstep=4 / vbv_maxrate=62500 / vbv_bufsize=78125 / crf_max=0.0 / nal_hrd=none / ip_ratio=1.00 / pb_ratio=1.00 / aq=2:1.00
    Язык : English
    Default : Да
    Forced : Нет
    _STATISTICS_WRITING_APP : mkvmerge v7.0.0 ('Where We Going') 32bit built on Jun 9 2014 15:08:34
    _STATISTICS_WRITING_DATE_UTC : 2016-02-17 19:02:10
    _STATISTICS_TAGS : BPS DURATION NUMBER_OF_FRAMES NUMBER_OF_BYTES
    DURATION : 01:57:22.828000000
    NUMBER_OF_FRAMES : 168859
    NUMBER_OF_BYTES : 5778355844
    Аудио #1
    Идентификатор : 2
    Формат : AC-3
    Формат/Информация : Audio Coding 3
    Расширение режима : CM (complete main)
    Параметр Endianness формата : Big
    Идентификатор кодека : A_AC3
    Продолжительность : 1 ч. 57 м.
    Вид битрейта : Постоянный
    Битрейт : 448 Кбит/сек
    Каналы : 6 каналов
    Расположение каналов : Front: L C R, Side: L R, LFE
    Частота : 48,0 КГц
    Битовая глубина : 16 бит
    Метод сжатия : С потерями
    Размер потока : 376 Мбайт (4%)
    Заголовок : |Дубляж|
    Язык : Russian
    Default : Да
    Forced : Нет
    Аудио #2
    Идентификатор : 3
    Формат : DTS
    Формат/Информация : Digital Theater Systems
    Режим : 16
    Параметр Endianness формата : Big
    Идентификатор кодека : A_DTS
    Продолжительность : 1 ч. 57 м.
    Вид битрейта : Постоянный
    Битрейт : 768 Кбит/сек
    Каналы : 6 каналов
    Расположение каналов : Front: L C R, Side: L R, LFE
    Частота : 48,0 КГц
    Битовая глубина : 24 бит
    Метод сжатия : С потерями
    Размер потока : 645 Мбайт (7%)
    Заголовок : |Двухголосый закадровый, П. Гланц и И. Королёва|
    Язык : Russian
    Default : Нет
    Forced : Нет
    Аудио #3
    Идентификатор : 4
    Формат : AC-3
    Формат/Информация : Audio Coding 3
    Расширение режима : CM (complete main)
    Параметр Endianness формата : Big
    Идентификатор кодека : A_AC3
    Продолжительность : 1 ч. 57 м.
    Вид битрейта : Постоянный
    Битрейт : 384 Кбит/сек
    Каналы : 6 каналов
    Расположение каналов : Front: L C R, Side: L R, LFE
    Частота : 48,0 КГц
    Битовая глубина : 16 бит
    Метод сжатия : С потерями
    Размер потока : 322 Мбайт (4%)
    Заголовок : |Многоголосый закадровый|
    Язык : Russian
    Default : Нет
    Forced : Нет
    Аудио #4
    Идентификатор : 5
    Формат : AC-3
    Формат/Информация : Audio Coding 3
    Расширение режима : CM (complete main)
    Параметр Endianness формата : Big
    Идентификатор кодека : A_AC3
    Продолжительность : 1 ч. 57 м.
    Вид битрейта : Постоянный
    Битрейт : 448 Кбит/сек
    Каналы : 6 каналов
    Расположение каналов : Front: L C R, Side: L R, LFE
    Частота : 48,0 КГц
    Битовая глубина : 16 бит
    Метод сжатия : С потерями
    Размер потока : 376 Мбайт (4%)
    Заголовок : |Одноголосый закадровый, Ю. Живов|
    Язык : Russian
    Default : Нет
    Forced : Нет
    Аудио #5
    Идентификатор : 6
    Формат : AC-3
    Формат/Информация : Audio Coding 3
    Расширение режима : CM (complete main)
    Параметр Endianness формата : Big
    Идентификатор кодека : A_AC3
    Продолжительность : 1 ч. 57 м.
    Вид битрейта : Постоянный
    Битрейт : 448 Кбит/сек
    Каналы : 6 каналов
    Расположение каналов : Front: L C R, Side: L R, LFE
    Частота : 48,0 КГц
    Битовая глубина : 16 бит
    Метод сжатия : С потерями
    Размер потока : 376 Мбайт (4%)
    Заголовок : |Одноголосый закадровый, А.Гаврилов|
    Язык : Russian
    Default : Нет
    Forced : Нет
    Аудио #6
    Идентификатор : 7
    Формат : AC-3
    Формат/Информация : Audio Coding 3
    Расширение режима : CM (complete main)
    Параметр Endianness формата : Big
    Идентификатор кодека : A_AC3
    Продолжительность : 1 ч. 57 м.
    Вид битрейта : Постоянный
    Битрейт : 192 Кбит/сек
    Каналы : 2 канала
    Расположение каналов : Front: L R
    Частота : 48,0 КГц
    Битовая глубина : 16 бит
    Метод сжатия : С потерями
    Размер потока : 161 Мбайт (2%)
    Заголовок : |Многоголосый закадровый, ICTV|
    Язык : Ukrainian
    Default : Нет
    Forced : Нет
    Аудио #7
    Идентификатор : 8
    Формат : AC-3
    Формат/Информация : Audio Coding 3
    Расширение режима : CM (complete main)
    Параметр Endianness формата : Big
    Идентификатор кодека : A_AC3
    Продолжительность : 1 ч. 57 м.
    Вид битрейта : Постоянный
    Битрейт : 192 Кбит/сек
    Каналы : 2 канала
    Расположение каналов : Front: L R
    Частота : 48,0 КГц
    Битовая глубина : 16 бит
    Метод сжатия : С потерями
    Размер потока : 161 Мбайт (2%)
    Заголовок : |Многоголосый закадровый, Новый канал|
    Язык : Ukrainian
    Default : Нет
    Forced : Нет
    Аудио #8
    Идентификатор : 9
    Формат : DTS
    Формат/Информация : Digital Theater Systems
    Режим : 16
    Параметр Endianness формата : Big
    Идентификатор кодека : A_DTS
    Продолжительность : 1 ч. 57 м.
    Вид битрейта : Постоянный
    Битрейт : 1509 Кбит/сек
    Каналы : 6 каналов
    Расположение каналов : Front: L C R, Side: L R, LFE
    Частота : 48,0 КГц
    Битовая глубина : 24 бит
    Метод сжатия : С потерями
    Размер потока : 1,24 Гбайт (14%)
    Язык : English
    Default : Нет
    Forced : Нет
    Текст #1
    Идентификатор : 10
    Формат : UTF-8
    Идентификатор кодека : S_TEXT/UTF8
    Идентификатор кодека/Информация : UTF-8 Plain Text
    Заголовок : Blu-ray TWN
    Язык : Russian
    Default : Нет
    Forced : Нет
    Текст #2
    Идентификатор : 11
    Формат : UTF-8
    Идентификатор кодека : S_TEXT/UTF8
    Идентификатор кодека/Информация : UTF-8 Plain Text
    Заголовок : -( VPh )-
    Язык : Russian
    Default : Нет
    Forced : Нет
    Текст #3
    Идентификатор : 12
    Формат : UTF-8
    Идентификатор кодека : S_TEXT/UTF8
    Идентификатор кодека/Информация : UTF-8 Plain Text
    Язык : English
    Default : Нет
    Forced : Нет
    Меню
    00:00:00.000 : en:Santorini, Greece
    00:03:05.977 : en:Swallowed By the Sea
    00:06:42.193 : en:The Luna Temple
    00:11:16.759 : en:Losing the Orb
    00:16:54.138 : en:07744681
    00:20:40.239 : en:Tea Is for Guests
    00:24:14.786 : en:Pandora's Box
    00:27:43.078 : en:Barla Kala Prison
    00:31:53.411 : en:Accessorizing
    00:34:41.788 : en:I Am Charming
    00:37:14.148 : en:The Shay-Ling
    00:42:38.264 : en:Terra-Cotta Warriors
    00:47:58.709 : en:Shanghai
    00:51:11.276 : en:Wait for My Signal
    00:56:09.532 : en:Hong Kong
    01:00:08.646 : en:No Mistakes
    01:06:27.984 : en:Taking Flight
    01:10:02.198 : en:Because I Could
    01:14:35.304 : en:Translating
    01:19:36.688 : en:Kilimanjaro
    01:24:04.622 : en:Near the Summit
    01:28:52.493 : en:Shadow Guardians
    01:35:16.502 : en:The Cradle of Life
    01:40:21.098 : en:Put It Back
    01:45:35.162 : en:Not Meant to Be Found
    01:47:48.837 : en:Titles

    -
    Цитата:
    * Сохранены оригинальные главы как на Blu-ray.
    * СПАСИБО: Skazhutin за работу над русскими дорогами №1-№4.
    * Большое спасибо за синхронизацию русской дорожки А.Гаврилова - Bess80.
    Скачать .torrent

    Скачать торрент-файл бесплатно и на максимальной скорости!

    Как скачивать? · Что такое торрент? · Рейтинг и ограничения

    !ВНИМАНИЕ!
    Сайт не распространяет и не хранит электронные версии произведений, а занимается лишь лишь предоставлением доступа к создаваемому пользователями каталогу ссылок на торрент-файлы, которые содержат только списки хеш-сумм, убедительная просьба с жалобами обращаться напрямую к пользователю. Файлы для обмена на трекере предоставлены пользователями сайта, и администрация не несёт ответственности за их содержание. Просьба не заливать файлы, защищенные авторскими правами, а также файлы нелегального содержания!


    _________________
    [Профиль] [ЛС]
    Показать сообщения:    
    Ответить на тему

    Текущее время: Сегодня, в 10:04

    Часовой пояс: GMT + 2



    Вы не можете начинать темы
    Вы не можете отвечать на сообщения
    Вы не можете редактировать свои сообщения
    Вы не можете удалять свои сообщения
    Вы не можете голосовать в опросах
    Вы не можете прикреплять файлы к сообщениям
    Вы не можете скачивать файлы