BitTorrentTracker PerecTracker.org
BitTorrentTracker PerecTracker.org
    
Регистрация  ·  Вход
 
 · 
Забыли пароль?

  • Отец-одиночка / Серии: 1-4 из 4 (Александр Итыгилов-мл.) [2016, Лирическая мелодрама, SATRip]

    Ответить на тему
     
    Автор Сообщение

    Light

    Создавать темы 21-Фев-2016 23:30

           

    [Цитировать]

    Отец-одиночка
    Год выпуска: 2016
    Производство: Канал "Украина"
    Жанр: Лирическая мелодрама
    Продолжительность: 00:46:00
    Субтитры: Украинские
    Режиссёр: Александр Итыгилов-мл.
    В ролях: Олег Штефанко, Мария Куликова, Дария Боцманова, Вениамин Прибура, Максим Дрозд, Лариса Руснак, Константин Соловьёв, Екатерина Молоховская, Татьяна Юрикова, Дмитрий Сова, Алла Масленникова, Инна Мирошниченко, Виктория Булитко, Екатерина Кистень, Игорь Гнездилов, Галина Корнеева, Елена Бондарева-Репина
    Описание: Эта лирическая мелодрама рассказывает о любви двух зрелых людей – учительницы Александры и бывшего летчика Евгения. Роднит их разочарованность в семейной жизни, неустроенность в жизни бытовой, готовность всегда кинуться на помощь слабому и обиженному. Обаятельные, но зачастую трогательно-нелепые, оба растят своих детей в одиночку: Александра – сына Сашку, Евгений – дочку Женьку. Встретившись в школе, герои волею обстоятельств начинают регулярно видеться. И постепенно осознают, что их встреча – начало большого и сильного чувства. За которое им придется бороться.
    Против этой любви, казалось бы, многое: разница в возрасте, зацикленность Евгения на дочке, которая лишена материнской ласки, его конфликт со старшим сыном Василием, козни бывшего мужа Александры. Но тезки своих родителей – Сашка и Женька – очень поспособствуют сближению героев. Мальчик в восторге от Евгения – некогда бравого летчика, настоящего мужчины в поведении: скупого на слова, решительного в поступках. А Женька искренне привяжется к Александре, которая окружит девочку заботой и лаской...
    ----
    Учительницу Александру и бывшего летчика Евгения роднит их разочарованность в семейной жизни, неустроенность в жизни бытовой, готовность всегда кинуться на помощь слабому и обиженному. Обаятельные, но зачастую трогательно-нелепые, оба растят своих детей в одиночку: Александра - сына Сашку, Евгений - дочку Женьку. Встретившись в школе, они волею обстоятельств начинают регулярно видеться. И постепенно осознают, что их встреча – начало большого и сильного чувства. За которое им придется бороться. Против этой любви, казалось бы, многое: разница в возрасте, зацикленность Евгения на дочке, которая лишена материнской ласки, его конфликт со старшим сыном Василием, козни бывшего мужа Александры. Но тезки своих родителей - Сашка и Женька - очень поспособствуют сближению родителей. Мальчик в восторге от Евгения - некогда бравого летчика, настоящего мужчины в поведении. А Женька искренне привязывается к Александре, которая окружает девочку заботой и лаской...
    -
    Доп. информация: Реклама отсутствует!
    -
    Все раздачи сериала: http://perectracker.org/tracker.php?f=41&nm=Отец-одиночка
    Сэмпл: Скачать
    Качество: SATRip
    Формат: AVI
    Видео кодек: XviD
    Аудио кодек: MP3
    Видео: 704x400, 25 fps, XviD, ~1500 kbps, 0.229 bit/pixel
    Аудио: 48 kHz, MPEG Layer 3, 2 ch, 192 kbps

    MI

    Общее
    Полное имя : U:\Сериалы (2015)\Отец-одиночка (2016)\Отец-одиночка.(01.seriya).2016.XviD.SATRip.by.simka.avi
    Формат : AVI
    Формат/Информация : Audio Video Interleave
    Размер файла : 533 Мбайт
    Продолжительность : 42 м.
    Общий поток : 1745 Кбит/сек
    Программа кодирования : VirtualDubModRus 1.5.10.2 (build 2542/release)
    Библиотека кодирования : VirtualDubMod build 2542/release
    Видео
    Идентификатор : 0
    Формат : MPEG-4 Visual
    Профиль формата : Advanced Simple@L5
    Параметр BVOP формата : 1
    Параметр QPel формата : Нет
    Параметр GMC формата : Без точки перехода
    Параметр матрицы формата : Default (MPEG)
    Идентификатор кодека : XVID
    Идентификатор кодека/Подсказка : XviD
    Продолжительность : 42 м.
    Битрейт : 1543 Кбит/сек
    Ширина : 704 пикселя
    Высота : 400 пикселей
    Соотношение сторон : 16:9
    Частота кадров : 25,000 кадров/сек
    Цветовое пространство : YUV
    Субдискретизация насыщенности : 4:2:0
    Битовая глубина : 8 бит
    Тип развёртки : Прогрессивная
    Метод сжатия : С потерями
    Бит/(Пиксели*Кадры) : 0.219
    Размер потока : 472 Мбайт (88%)
    Библиотека кодирования : XviD 1.2.1 (UTC 2008-12-04)
    Аудио
    Идентификатор : 1
    Формат : MPEG Audio
    Версия формата : Version 1
    Профиль формата : Layer 3
    Режим : Joint stereo
    Расширение режима : MS Stereo
    Идентификатор кодека : 55
    Идентификатор кодека/Подсказка : MP3
    Продолжительность : 42 м.
    Вид битрейта : Постоянный
    Битрейт : 192 Кбит/сек
    Каналы : 2 канала
    Частота : 48,0 КГц
    Метод сжатия : С потерями
    Размер потока : 58,7 Мбайт (11%)
    Выравнивание : Соединение по промежуткам
    Продолжительность промежутка : 40 мс. (1,00 видеокадр)
    Время предзагрузки промежутка : 504 мс.
    Библиотека кодирования : LAME3.99r
    Настройки программы : -m j -V 4 -q 2 -lowpass 18.6 -b 192

    Скриншоты

    Скачать .torrent

    Скачать торрент-файл бесплатно и на максимальной скорости!

    Как скачивать? · Что такое торрент? · Рейтинг и ограничения

    !ВНИМАНИЕ!
    Сайт не распространяет и не хранит электронные версии произведений, а занимается лишь лишь предоставлением доступа к создаваемому пользователями каталогу ссылок на торрент-файлы, которые содержат только списки хеш-сумм, убедительная просьба с жалобами обращаться напрямую к пользователю. Файлы для обмена на трекере предоставлены пользователями сайта, и администрация не несёт ответственности за их содержание. Просьба не заливать файлы, защищенные авторскими правами, а также файлы нелегального содержания!


    _________________
    [Профиль] [ЛС]
    Показать сообщения:    
    Ответить на тему

    Текущее время: Сегодня, в 08:12

    Часовой пояс: GMT + 2



    Вы не можете начинать темы
    Вы не можете отвечать на сообщения
    Вы не можете редактировать свои сообщения
    Вы не можете удалять свои сообщения
    Вы не можете голосовать в опросах
    Вы не можете прикреплять файлы к сообщениям
    Вы не можете скачивать файлы