BitTorrentTracker PerecTracker.org
BitTorrentTracker PerecTracker.org
    
Регистрация  ·  Вход
 
 · 
Забыли пароль?

  • Снежная битва / Snowtime! / La guerre des tuques (Жан-Франсуа Пуле / Jean-François Pouliot, Франсуа Бриссон / François Brisson) [2015, Канада, мультфильм, BDRip-AVC] DUB + Original (Eng)

    Ответить на тему
     
    Автор Сообщение

    rechyn

    Создавать темы 21-Фев-2016 20:46

           

    [Цитировать]

    Снежная битва
    Snowtime! | La guerre des tuques
    Год выпуска: 2015
    Страна: Канада
    Жанр: мультфильм
    Продолжительность: 01:22:20
    Перевод: Профессиональный (Дублированный)
    субтитры: отсутствуют-Режиссёр: Жан-Франсуа Пуле : Jean-François Pouliot, Франсуа Бриссон : François Brisson-Роли озвучивали: Анджела Галуппо, Марилуп Вульф, Люсинда Дэвис, Николас Савард-Хербер, Софи Кадьо, Энн Касабонн, Хелен Буржуа Леклерк, Росс Линч, Катрин Трюдо, Жильдор Руа-ОписаниеЧтобы развлечься во время зимних каникул, детвора из маленькой деревни решает устроить грандиозное снежное побоище между двумя командами.- релиз: -Качество: BDRip-AVC BDRemux 1080p -Azureus-
    Формат: MKV
    Видео кодек: AVC
    Аудио кодек: AC3
    Видео: AVC 1955 Kbps1136 x 476 (2.387) 23.976 fps
    Аудио #1: [RUS] 48 kHz, AC3 Dolby Digital, 2/0 (L,R) ch, ~192 kbps
    Аудио #2: [ENG] AC-3 448 Kbps 6 channels, 48.0 KHz
    навигация по главам: 16 глав (не именные)

    Скриншоты



    MediaInfo | Log

    Log

    x264 [info]: frame I:1262 Avg QP:13.99 size: 89242
    x264 [info]: frame P:28039 Avg QP:15.79 size: 20437
    x264 [info]: frame B:89163 Avg QP:18.63 size: 6205
    x264 [info]: consecutive B-frames: 3.2% 3.3% 11.5% 27.4% 13.4% 33.1% 3.2% 1.4% 1.1% 0.4% 0.4% 0.9% 0.7%
    x264 [info]: mb I I16..4: 6.7% 59.4% 34.0%
    x264 [info]: mb P I16..4: 0.7% 8.7% 2.1% P16..4: 22.4% 21.8% 11.8% 3.2% 0.6% skip:28.8%
    x264 [info]: mb B I16..4: 0.2% 1.3% 0.3% B16..8: 22.2% 14.2% 3.1% direct: 3.6% skip:55.1% L0:39.4% L1:44.9% BI:15.7%
    x264 [info]: 8x8 transform intra:71.9% inter:41.2%
    x264 [info]: direct mvs spatial:100.0% temporal:0.0%
    x264 [info]: coded y,uvDC,uvAC intra: 88.5% 76.3% 59.0% inter: 13.9% 7.8% 2.9%
    x264 [info]: i16 v,h,dc,p: 26% 21% 10% 43%
    x264 [info]: i8 v,h,dc,ddl,ddr,vr,hd,vl,hu: 11% 13% 10% 8% 11% 10% 12% 11% 15%
    x264 [info]: i4 v,h,dc,ddl,ddr,vr,hd,vl,hu: 12% 11% 8% 8% 14% 12% 13% 10% 12%
    x264 [info]: i8c dc,h,v,p: 36% 34% 17% 14%
    x264 [info]: Weighted P-Frames: Y:1.6% UV:0.8%
    x264 [info]: ref P L0: 54.1% 8.7% 15.2% 5.6% 4.2% 3.3% 2.7% 1.7% 1.5% 1.4% 1.3% 0.3% 0.0%
    x264 [info]: ref B L0: 76.4% 10.2% 5.0% 2.5% 1.8% 1.4% 1.2% 0.8% 0.5% 0.3%
    x264 [info]: ref B L1: 92.6% 7.4%
    x264 [info]: kb/s:2005.91
    x264 [total]: encoded 118464 frames, 11.70 fps, 2005.91 kb/s, duration 2:48:42.77
    Format : Matroska
    Format version : Version 4 / Version 2
    File size : 1.52 GiB
    Duration : 1h 22mn
    Overall bit rate : 2 648 Kbps
    Encoded date : UTC 2016-02-21 14:56:18
    Writing application : mkvmerge v6.7.0 ('Back to the Ground') 32bit built on Jan 8 2014 15:03:17
    Writing library : libebml v1.3.0 + libmatroska v1.4.1
    Video
    ID : 1
    Format : AVC
    Format/Info : Advanced Video Codec
    Format profile : High@L4.1
    Format settings, CABAC : Yes
    Format settings, ReFrames : 11 frames
    Codec ID : V_MPEG4/ISO/AVC
    Duration : 1h 22mn
    Bit rate : 1 955 Kbps
    Width : 1 136 pixels
    Height : 476 pixels
    Display aspect ratio : 2.40:1
    Frame rate mode : Constant
    Frame rate : 23.976 fps
    Color space : YUV
    Chroma subsampling : 4:2:0
    Bit depth : 8 bits
    Scan type : Progressive
    Bits/(Pixel*Frame) : 0.151
    Stream size : 1.12 GiB (74%)
    Title : Snowtime (2015) [perectracker.org]
    Writing library : x264 core 148 r2638kMod 7599210
    Encoding settings : cabac=1 / ref=11 / deblock=1:-2:-2 / analyse=0x3:0x133 / me=umh / subme=11 / psy=1 / fade_compensate=0.00 / psy_rd=1.00:0.05 / mixed_ref=1 / me_range=48 / chroma_me=1 / trellis=2 / 8x8dct=1 / cqm=0 / deadzone=21,11 / fast_pskip=0 / chroma_qp_offset=-3 / threads=12 / lookahead_threads=3 / sliced_threads=0 / nr=0 / decimate=1 / interlaced=0 / bluray_compat=0 / constrained_intra=0 / fgo=0 / bframes=12 / b_pyramid=2 / b_adapt=2 / b_bias=0 / direct=3 / weightb=1 / open_gop=0 / weightp=2 / keyint=250 / keyint_min=23 / scenecut=40 / intra_refresh=0 / rc_lookahead=60 / rc=crf / mbtree=0 / crf=17.0000 / qcomp=0.60 / qpmin=0 / qpmax=69 / qpstep=4 / vbv_maxrate=50000 / vbv_bufsize=62500 / crf_max=0.0 / nal_hrd=none / filler=0 / ip_ratio=1.40 / pb_ratio=1.30 / aq=3:0.90
    Language : English
    Default : Yes
    Forced : No
    Audio #1
    ID : 2
    Format : AC-3
    Format/Info : Audio Coding 3
    Mode extension : CM (complete main)
    Format settings, Endianness : Big
    Codec ID : A_AC3
    Duration : 1h 22mn
    Bit rate mode : Constant
    Bit rate : 192 Kbps
    Channel(s) : 2 channels
    Channel positions : Front: L R
    Sampling rate : 48.0 KHz
    Compression mode : Lossy
    Stream size : 113 MiB (7%)
    Title : DUB
    Language : Russian
    Default : Yes
    Forced : No
    Audio #2
    ID : 3
    Format : AC-3
    Format/Info : Audio Coding 3
    Mode extension : CM (complete main)
    Format settings, Endianness : Big
    Codec ID : A_AC3
    Duration : 1h 22mn
    Bit rate mode : Constant
    Bit rate : 448 Kbps
    Channel(s) : 6 channels
    Channel positions : Front: L C R, Side: L R, LFE
    Sampling rate : 48.0 KHz
    Compression mode : Lossy
    Stream size : 264 MiB (17%)
    Title : Original
    Language : English
    Default : No
    Forced : No
    Menu
    00:00:00.000 : en:00:00:00.000
    00:04:39.112 : en:00:04:39.112
    00:09:17.640 : en:00:09:17.640
    00:17:37.974 : en:00:17:37.974
    00:22:18.879 : en:00:22:18.879
    00:28:09.688 : en:00:28:09.688
    00:31:41.358 : en:00:31:41.358
    00:36:09.376 : en:00:36:09.376
    00:44:13.860 : en:00:44:13.860
    00:47:54.121 : en:00:47:54.121
    00:53:04.264 : en:00:53:04.264
    00:58:45.564 : en:00:58:45.564
    01:03:37.230 : en:01:03:37.230
    01:07:00.433 : en:01:07:00.433
    01:14:14.992 : en:01:14:14.992
    01:19:07.451 : en:01:19:07.451
    Скачать .torrent

    Скачать торрент-файл бесплатно и на максимальной скорости!

    Как скачивать? · Что такое торрент? · Рейтинг и ограничения

    !ВНИМАНИЕ!
    Сайт не распространяет и не хранит электронные версии произведений, а занимается лишь лишь предоставлением доступа к создаваемому пользователями каталогу ссылок на торрент-файлы, которые содержат только списки хеш-сумм, убедительная просьба с жалобами обращаться напрямую к пользователю. Файлы для обмена на трекере предоставлены пользователями сайта, и администрация не несёт ответственности за их содержание. Просьба не заливать файлы, защищенные авторскими правами, а также файлы нелегального содержания!


    _________________
    [Профиль] [ЛС]
    Показать сообщения:    
    Ответить на тему

    Текущее время: Сегодня, в 11:51

    Часовой пояс: GMT + 2



    Вы не можете начинать темы
    Вы не можете отвечать на сообщения
    Вы не можете редактировать свои сообщения
    Вы не можете удалять свои сообщения
    Вы не можете голосовать в опросах
    Вы не можете прикреплять файлы к сообщениям
    Вы не можете скачивать файлы