BitTorrentTracker PerecTracker.org
BitTorrentTracker PerecTracker.org
    
Регистрация  ·  Вход
 
 · 
Забыли пароль?

  • Комната / Room (Леонард Абрахамсон / Lenny Abrahamson) [2015, Ирландия, Канада, драма, BDRip-AVC] VO (Матвеев) + DVO (Parovoz Production) + Sub Rus, Eng + Original Eng

    Ответить на тему
     
    Автор Сообщение

    rechyn

    Создавать темы 21-Фев-2016 20:46

           

    [Цитировать]

    Комната
    Room
    «Love knows no boundaries»
    -Страна: Ирландия, Канада
    Жанр: драма
    Год выпуска: 2015
    Продолжительность: 01:57:38
    Перевод: Одноголосый закадровый Матвеев
    Перевод 2: Любительский (двухголосый закадровый) Parovoz Production
    Cубтитры: Rus (Forced, Full), Eng SDH
    Оригинальная аудиодорожка: английский
    Режиссер: Леонард Абрахамсон / Lenny Abrahamson
    В ролях: Бри Ларсон (Ma), Джейкоб Трамбле (Jack), Шон Бриджерс (Old Nick), Венди Крюсон (Talk Show Hostess), Сэнди МакМастер (Veteran), Мэтт Гордон (Doug), Аманда Бругел (Officer Parker), Джо Пинг (Officer Grabowski), Джоан Аллен (Nancy), Заррин Дарнелл-Мартин (Attending Doctor), Кэс Анвар (Dr. Mittal), Уильям Х. Мэйси (Robert)-ОписаниеДевушку по имени Ма похитили, когда она была еще подростком. С тех пор бедняга живет в крохотной комнатке вместе со своим 5-летним сыном Джеком. Мальчик при этом ничего кроме этой комнаты не видел, он в ней родился и ни разу ее не покидал.-Рекламы, нецензурной лексики - нетСэмпл

    IMDb: 8.30 (44 721)
    Качество видео: BDRip-AVC Room..2015..BDREMUX.1080p kinozal
    Формат видео: MKV
    Видео: AVC 2585 Kbps 1152 x 480 (2.400) 23.976 fps
    Аудио: AC-3 224 Kbps 2 channels, 48.0 KHz Матвеев
    Аудио 2: AC-3 192 Kbps 2 channels, 48.0 KHz Parovoz Production
    Аудио 3: AC-3 448 Kbps 6 channels, 48.0 KHz Eng
    Формат субтитров: softsub (SRT)
    MediaInfo | Log

    Log

    x264 [info]: frame I:1154 Avg QP:14.94 size: 79635
    x264 [info]: frame P:31237 Avg QP:16.37 size: 29725
    x264 [info]: frame B:136834 Avg QP:18.20 size: 9645
    x264 [info]: consecutive B-frames: 1.4% 1.6% 4.5% 10.2% 15.7% 40.7% 9.1% 2.3% 3.0% 2.5% 2.6% 2.6% 3.8%
    x264 [info]: mb I I16..4: 10.1% 79.0% 10.9%
    x264 [info]: mb P I16..4: 0.7% 13.1% 0.7% P16..4: 29.3% 35.2% 13.7% 1.6% 0.1% skip: 5.6%
    x264 [info]: mb B I16..4: 0.0% 0.6% 0.0% B16..8: 37.2% 20.9% 3.4% direct: 5.3% skip:32.6% L0:45.9% L1:46.4% BI: 7.7%
    x264 [info]: 8x8 transform intra:87.9% inter:63.0%
    x264 [info]: direct mvs spatial:99.7% temporal:0.3%
    x264 [info]: coded y,uvDC,uvAC intra: 93.0% 92.7% 82.9% inter: 22.8% 33.8% 19.8%
    x264 [info]: i16 v,h,dc,p: 19% 10% 11% 60%
    x264 [info]: i8 v,h,dc,ddl,ddr,vr,hd,vl,hu: 7% 6% 9% 11% 15% 14% 13% 12% 13%
    x264 [info]: i4 v,h,dc,ddl,ddr,vr,hd,vl,hu: 9% 8% 5% 9% 16% 15% 14% 11% 12%
    x264 [info]: i8c dc,h,v,p: 58% 15% 11% 16%
    x264 [info]: Weighted P-Frames: Y:2.5% UV:1.3%
    x264 [info]: ref P L0: 44.0% 7.8% 19.7% 6.7% 6.4% 3.9% 4.0% 1.9% 2.1% 1.5% 1.8% 0.2% 0.0%
    x264 [info]: ref B L0: 66.4% 14.4% 6.9% 3.8% 2.6% 2.2% 1.6% 1.1% 0.6% 0.3%
    x264 [info]: ref B L1: 91.2% 8.8%
    x264 [info]: kb/s:2652.50
    x264 [total]: encoded 169225 frames, 8.59 fps, 2652.50 kb/s, duration 5:28:11.70
    Format : Matroska
    Format version : Version 4 / Version 2
    File size : 2.89 GiB
    Duration : 1h 57mn
    Overall bit rate : 3 519 Kbps
    Encoded date : UTC 2016-02-20 21:49:29
    Writing application : mkvmerge v6.7.0 ('Back to the Ground') 32bit built on Jan 8 2014 15:03:17
    Writing library : libebml v1.3.0 + libmatroska v1.4.1
    Video
    ID : 1
    Format : AVC
    Format/Info : Advanced Video Codec
    Format profile : High@L4.1
    Format settings, CABAC : Yes
    Format settings, ReFrames : 11 frames
    Codec ID : V_MPEG4/ISO/AVC
    Duration : 1h 57mn
    Bit rate : 2 585 Kbps
    Width : 1 152 pixels
    Height : 480 pixels
    Display aspect ratio : 2.40:1
    Frame rate mode : Constant
    Frame rate : 23.976 fps
    Color space : YUV
    Chroma subsampling : 4:2:0
    Bit depth : 8 bits
    Scan type : Progressive
    Bits/(Pixel*Frame) : 0.195
    Stream size : 2.12 GiB (73%)
    Title : Room (2015) [perectracker.org]
    Writing library : x264 core 148 r2638kMod 7599210
    Encoding settings : cabac=1 / ref=11 / deblock=1:-2:-2 / analyse=0x3:0x133 / me=umh / subme=11 / psy=1 / fade_compensate=0.00 / psy_rd=1.00:0.05 / mixed_ref=1 / me_range=48 / chroma_me=1 / trellis=2 / 8x8dct=1 / cqm=0 / deadzone=21,11 / fast_pskip=0 / chroma_qp_offset=-3 / threads=12 / lookahead_threads=3 / sliced_threads=0 / nr=0 / decimate=1 / interlaced=0 / bluray_compat=0 / constrained_intra=0 / fgo=0 / bframes=12 / b_pyramid=2 / b_adapt=2 / b_bias=0 / direct=3 / weightb=1 / open_gop=0 / weightp=2 / keyint=250 / keyint_min=23 / scenecut=40 / intra_refresh=0 / rc_lookahead=60 / rc=crf / mbtree=0 / crf=18.8000 / qcomp=0.60 / qpmin=0 / qpmax=69 / qpstep=4 / vbv_maxrate=50000 / vbv_bufsize=62500 / crf_max=0.0 / nal_hrd=none / filler=0 / ip_ratio=1.40 / pb_ratio=1.30 / aq=3:0.90
    Language : English
    Default : Yes
    Forced : No
    Audio #1
    ID : 2
    Format : AC-3
    Format/Info : Audio Coding 3
    Mode extension : CM (complete main)
    Format settings, Endianness : Big
    Codec ID : A_AC3
    Duration : 1h 57mn
    Bit rate mode : Constant
    Bit rate : 224 Kbps
    Channel(s) : 2 channels
    Channel positions : Front: L R
    Sampling rate : 48.0 KHz
    Compression mode : Lossy
    Stream size : 188 MiB (6%)
    Title : VO (Matveev)
    Language : Russian
    Default : Yes
    Forced : No
    Audio #2
    ID : 3
    Format : AC-3
    Format/Info : Audio Coding 3
    Mode extension : CM (complete main)
    Format settings, Endianness : Big
    Codec ID : A_AC3
    Duration : 1h 57mn
    Bit rate mode : Constant
    Bit rate : 192 Kbps
    Channel(s) : 2 channels
    Channel positions : Front: L R
    Sampling rate : 48.0 KHz
    Compression mode : Lossy
    Stream size : 162 MiB (5%)
    Title : DVO [Parovoz Production]
    Language : Russian
    Default : No
    Forced : No
    Audio #3
    ID : 4
    Format : AC-3
    Format/Info : Audio Coding 3
    Mode extension : CM (complete main)
    Format settings, Endianness : Big
    Codec ID : A_AC3
    Duration : 1h 57mn
    Bit rate mode : Constant
    Bit rate : 448 Kbps
    Channel(s) : 6 channels
    Channel positions : Front: L C R, Side: L R, LFE
    Sampling rate : 48.0 KHz
    Compression mode : Lossy
    Stream size : 377 MiB (13%)
    Title : Original
    Language : English
    Default : No
    Forced : No
    Text #1
    ID : 5
    Format : UTF-8
    Codec ID : S_TEXT/UTF8
    Codec ID/Info : UTF-8 Plain Text
    Title : Forced
    Language : Russian
    Default : Yes
    Forced : No
    Text #2
    ID : 6
    Format : UTF-8
    Codec ID : S_TEXT/UTF8
    Codec ID/Info : UTF-8 Plain Text
    Title : Full
    Language : Russian
    Default : No
    Forced : No
    Text #3
    ID : 7
    Format : UTF-8
    Codec ID : S_TEXT/UTF8
    Codec ID/Info : UTF-8 Plain Text
    Title : SDH
    Language : English
    Default : No
    Forced : No
    Menu
    00:00:00.000 : en:00:00:00.000
    00:07:07.427 : en:00:07:07.427
    00:12:23.034 : en:00:12:23.034
    00:24:29.760 : en:00:24:29.760
    00:31:11.787 : en:00:31:11.787
    00:37:16.860 : en:00:37:16.860
    00:47:27.762 : en:00:47:27.762
    00:52:27.019 : en:00:52:27.019
    00:59:46.041 : en:00:59:46.041
    01:09:29.582 : en:01:09:29.582
    01:16:51.524 : en:01:16:51.524
    01:23:52.861 : en:01:23:52.861
    01:31:30.944 : en:01:31:30.944
    01:37:03.151 : en:01:37:03.151
    01:43:28.494 : en:01:43:28.494
    01:48:23.956 : en:01:48:23.956

    Скриншоты




    Скачать .torrent

    Скачать торрент-файл бесплатно и на максимальной скорости!

    Как скачивать? · Что такое торрент? · Рейтинг и ограничения

    !ВНИМАНИЕ!
    Сайт не распространяет и не хранит электронные версии произведений, а занимается лишь лишь предоставлением доступа к создаваемому пользователями каталогу ссылок на торрент-файлы, которые содержат только списки хеш-сумм, убедительная просьба с жалобами обращаться напрямую к пользователю. Файлы для обмена на трекере предоставлены пользователями сайта, и администрация не несёт ответственности за их содержание. Просьба не заливать файлы, защищенные авторскими правами, а также файлы нелегального содержания!


    _________________
    [Профиль] [ЛС]
    Показать сообщения:    
    Ответить на тему

    Текущее время: Сегодня, в 16:28

    Часовой пояс: GMT + 2



    Вы не можете начинать темы
    Вы не можете отвечать на сообщения
    Вы не можете редактировать свои сообщения
    Вы не можете удалять свои сообщения
    Вы не можете голосовать в опросах
    Вы не можете прикреплять файлы к сообщениям
    Вы не можете скачивать файлы