Register  ·  Log in
Forgot password?

  • Искусство быть счастливым / L\'arte della felicità (Алессандро Рак /Alessandro Rak) [2013, Италия, драмма, мультфильм, HDRip] Rus Sub

    Reply to topic
    Author Message


    Post 21-Feb-2016 17:34



    Искусство быть счастливым / L'arte della felicità
    Страна: Италия
    Жанр: драмма, рисованный фильм, авторский
    Продолжительность: 01:24:15
    Год выпуска: 2013
    Язык: итальянский
    Субтитры: русские, англиские
    Режиссёр: Алессандро Рак /Alessandro Rak
    Сценарист: Алессандро Рак, Лучиано Стелла
    Художник: Иван Каппиелло, Марино Гуарньери, Алессандро Рак
    Композитор: Антонио Фреза
    Роли озвучивали: Леандро Амато, Нандо Паоне, Ренато Карпентьери,
    Джан Ичикава, Лучио Аллочча
    Описание: Пианист Серджио отказывается от своего таланта и становится таксистом в Неаполе, после того как его старший брат Альфредо уехал практиковать буддизм в Непальском монастыре. Серджио остро переживает смерть брата, отказываясь читать его письмо. Он проводит время в машине, выслушивая истории и размышления своих клиентов и слушает радиопрограмму «Искусство быть счастливым», собирая как пазл по кусочкам, философию счастья.
    Доп. информация:
    Качество: HDRip
    Формат: MKV
    Видео: AVC(H264) 1152х622, 24 fps, ~2 500 Kbps, 8 bit
    Аудио: AC3, 6 ch, 48 kHz, 448 kbps
    Субтитры: Rus (ASS),Eng (ASS)

    Подробные технические данные

    Unique ID : 134405657410055838424889955587859715293 (0x651D968924225F207DA37921BCA094DD) Complete name : d:\DOWNLOADS\!Moi Torenty\The art of Hapyness\L'Arte Della Felicita 720p H264 Ita Ac3 Sub Rus Eng.mkv Format : Matroska Format version : Version 2 File size : 1.72 GiB Duration : 1h 24mn Overall bit rate : 2 929 Kbps Encoded date : UTC Writing application : HandBrake 0.10.2 2015060900 Writing library : Lavf55.12.0 / Lavf55.12.0 Video #1 ID : 1 Format : AVC Format/Info : Advanced Video Codec Format profile : High@L4.1 Format settings, CABAC : Yes Format settings, ReFrames : 7 frames Codec ID : V_MPEG4/ISO/AVC Duration : 1h 24mn Bit rate : 2 500 Kbps Width : 1 152 pixels Height : 622 pixels Display aspect ratio : 1.85:1 Original display aspect ratio : 1.85:1 Frame rate mode : Constant Frame rate : 24.000 fps Color space : YUV Chroma subsampling : 4:2:0 Bit depth : 8 bits Scan type : Progressive Bits/(Pixel*Frame) : 0.145 Stream size : 1.43 GiB (83%) Writing library : x264 core 142 r2479 dd79a61 Default : Yes Forced : No Color range : Limited Color primaries : BT.709 Transfer characteristics : BT.709 Matrix coefficients : BT.709 Audio #2 ID : 2 Format : AC-3 Format/Info : Audio Coding 3 Mode extension : CM (complete main) Format settings, Endianness : Big Codec ID : A_AC3 Duration : 1h 24mn Bit rate mode : Constant Bit rate : 448 Kbps Channel(s) : 6 channels Channel positions : Front: L C R, Side: L R, LFE Sampling rate : 48.0 KHz Frame rate : 31.250 fps (1536 spf) Compression mode : Lossy Delay relative to video : -5ms Stream size : 270 MiB (15%) Title : Surround Language : Italian Default : Yes Forced : No Text #3 ID : 3 Format : ASS Codec ID : S_TEXT/ASS Codec ID/Info : Advanced Sub Station Alpha Compression mode : Lossless Language : English Default : No Forced : No Text #4 ID : 4 Format : ASS Codec ID : S_TEXT/ASS Codec ID/Info : Advanced Sub Station Alpha Compression mode : Lossless Language : Russian Default : Yes Forced : No


    Download .torrent

    Download free and at maximum speed!

    How to Download? · What is a torrent? · Ratings and Limitations

    The site does not extend and does not store electronic(digital) versions of products, and only gives access to a reference catalogue created by users on torrent-files which contain only lists of the hash-sums, the earnest entreaty, with complaints(abuse) to access directly to the user. Files for an exchange on tracker are given by users of a site, and the administration does not bear the responsibility for their maintenance. The request to not fill in the files protected by copyrights, and also files of the illegal maintenance!

    [Profile] [PM]
    Display posts from previous:    
    Reply to topic

    The time now is: Today 13:37

    All times are GMT + 3 Hours

    You cannot post new topics in this forum
    You cannot reply to topics in this forum
    You cannot edit your posts in this forum
    You cannot delete your posts in this forum
    You cannot vote in polls in this forum
    You cannot attach files in this forum
    You cannot download files in this forum