BitTorrentTracker PerecTracker.org
BitTorrentTracker PerecTracker.org
    
Регистрация  ·  Вход
 
 · 
Забыли пароль?

  • [ATV3] Главный (Юрий Кара) [2015, Россия, История, драма, WEB-DL, HD (1080p)] Original

    Ответить на тему
     
    Автор Сообщение

    Flirldrerve

    Создавать темы 21-Фев-2016 12:22

           

    [Цитировать]

    Главный
    «За ним шли, потому что он знал куда идти»
    5.768 / 10
    -Год выпуска: 2015
    Страна: Россия
    Жанр: История, драма
    Продолжительность: 01:45:45
    Перевод: Не требуется
    Оригинальная аудиодорожка: Есть
    Cубтитры: Нет
    Режиссёр: Юрий Кара
    Сценарий: Юрий Кара
    Продюсер: Юрий Кара
    Оператор: Владимир Климов
    Композитор: Алексей Шелыгин
    Художник: Юрий Устинов, Александра Андреева
    В ролях: Валерий Гришко, Борис Щербаков, Лидия Арефьева, Алексей Богачук, Федор Лавров, Георгий Солдатов, Борис Каморзин, Анатолий Котенёв, Вадим Андреев, Александр Кузнецов
    Сборы в России: $2 212
    Премьера (РФ): 8 октября 2015, «Мастер Синема»
    Описание: Все знают, что Сергей Королев запустил в космос и Первый искусственный спутник Земли, и Лайку, и Гагарина, и вывел в открытый космос Алексея Леонова. Но никто не знает, насколько ему было трудно преодолеть и косность партийного руководства, и недоверие коллег. Но, как сказал один из его соратников, что у Королева все получалось потому, что ему верили и знали, что он знает, куда надо идти.-Качество исходника: WEB-DL 1080p (BlueBird)
    Качество: WEB-DL
    Тип: HD (1080p)
    Контейнер: M4V
    Видео: H.264, 1920x1080, 16:9, 5 252 Kbps, 25.000 fps
    Аудио 1: Русский/Оригинальная дорожка , AAC / 2.0 / 157 Kbps / 48.0 KHz
    Аудио 2: Русский/Оригинальная дорожка , AC-3 / 5.1 / 384 Kbps / 48.0 KHz
    -

    iTunes Meta Tags

    Sort Name: Главный
    XID: Apple:vendor_id:2015-799410
    contentID: 1082485235
    Copyright: © 2015 Paradise
    Screenwriters: Юрий Кара
    Producers: Юрий Кара
    Director: Юрий Кара
    Cast: Валерий Гришко, Борис Щербаков, Лидия Арефьева, Алексей Богачук, Федор Лавров, Георгий Солдатов, Борис Каморзин, Анатолий Котенёв, Вадим Андреев, Александр Кузнецов
    Studio: Мастер
    Rating: 133
    Long Description: Все знают, что Сергей Королев запустил в космос и Первый искусственный спутник Земли, и Лайку, и Гагарина, и вывел в открытый космос Алексея Леонова. Но никто не знает, насколько ему было трудно преодолеть и косность партийного руководства, и недоверие коллег. Но, как сказал один из его соратников, что у Королева все получалось потому, что ему верили и знали, что он знает, куда надо идти.
    Description: Все знают, что Сергей Королев запустил в космос и Первый искусственный спутник Земли, и Лайку, и Гагарина, и вывел в открытый космос Алексея Леонова. Но никто не знает, насколько ему было трудно преодолеть и косность партийного руководства, и недоверие коллег. Но, как сказал один из его соратников, что у Королева все получалось потому, что ему верили и знали, что он знает, куда надо идти.
    Release Date: 2015-01-01T08:00:00Z
    Genre: Драма
    Artist: Юрий Кара
    Name: Главный

    MediaInfo

    General
    Complete name : /Users/imac/HandBrake/Glavnyj.WEB-DL.1080p.m4v
    Format : MPEG-4
    Codec ID : M4V  (M4V /M4A /mp42/isom)
    File size : 4.28 GiB
    Duration : 1h 45mn
    Overall bit rate mode : Variable
    Overall bit rate : 5 799 Kbps
    Movie name : Главный
    Performer : Юрий Кара
    Director : Юрий Кара
    Actor : Валерий Гришко / Борис Щербаков / Лидия Арефьева / Алексей Богачук / Федор Лавров / Георгий Солдатов / Борис Каморзин / Анатолий Котенёв / Вадим Андреев / Александр Кузнецов
    Screenplay by : Юрий Кара
    Producer : Юрий Кара
    Production studio : Мастер
    Genre : Драма
    ContentType : Short Film
    Description : Все знают, что Сергей Королев запустил в космос и Первый искусственный спутник Земли, и Лайку, и Гагарина, и вывел в открытый космос Алексея Леонова. Но никто не знает, насколько ему было трудно преодолеть и косность партийного руководства, и недоверие коллег. Но, как сказал один из его соратников, что у Королева все получалось потому, что ему верили и знали, что он знает, куда надо идти.
    Recorded date : UTC 2015-01-01 08:00:00
    Encoded date : UTC 2016-02-21 08:48:03
    Tagged date : UTC 2016-02-21 08:51:35
    Copyright : © 2015 Paradise
    Cover : Yes
    Rating : None
    Title/Sort : Главный
    LongDescription : Все знают, что Сергей Королев запустил в космос и Первый искусственный спутник Земли, и Лайку, и Гагарина, и вывел в открытый космос Алексея Леонова. Но никто не знает, насколько ему было трудно преодолеть и косность партийного руководства, и недоверие коллег. Но, как сказал один из его соратников, что у Королева все получалось потому, что ему верили и знали, что он знает, куда надо идти.
    AppleStoreCatalogID : 1082485235
    Vendor : Apple:vendor_id:2015-799410
    ContentRating : ru-movie|6+|150|
    Video #1
    ID : 1
    Format : AVC
    Format/Info : Advanced Video Codec
    Format profile : High@L4
    Format settings, CABAC : Yes
    Format settings, ReFrames : 4 frames
    Codec ID : avc1
    Codec ID/Info : Advanced Video Coding
    Duration : 1h 45mn
    Bit rate : 5 252 Kbps
    Width : 1 920 pixels
    Height : 1 080 pixels
    Display aspect ratio : 16:9
    Frame rate mode : Constant
    Frame rate : 25.000 fps
    Color space : YUV
    Chroma subsampling : 4:2:0
    Bit depth : 8 bits
    Scan type : Progressive
    Bits/(Pixel*Frame) : 0.101
    Stream size : 3.88 GiB (91%)
    Title : Main Program
    Language : Russian
    Encoded date : UTC 2016-02-21 08:48:03
    Tagged date : UTC 2016-02-21 08:48:09
    Color range : Limited
    Color primaries : BT.709
    Transfer characteristics : BT.709
    Matrix coefficients : BT.709
    Menus : 4,5
    Video #2
    ID : 5
    Format : JPEG
    Codec ID : jpeg
    Duration : 1h 45mn
    Bit rate mode : Variable
    Bit rate : 957 bps
    Width : 640 pixels
    Height : 360 pixels
    Display aspect ratio : 16:9
    Frame rate mode : Variable
    Frame rate : 0.002 fps
    Minimum frame rate : 0.001 fps
    Maximum frame rate : 0.004 fps
    Color space : YUV
    Chroma subsampling : 4:2:0
    Bit depth : 8 bits
    Compression mode : Lossy
    Bits/(Pixel*Frame) : 2.077
    Stream size : 876 KiB (0%)
    Title : Chapter Images
    Language : Russian
    Default : No
    Encoded date : UTC 2016-02-21 08:48:17
    Tagged date : UTC 2016-02-21 08:48:18
    Menu For : 1
    Audio #1
    ID : 2
    Format : AAC
    Format/Info : Advanced Audio Codec
    Format profile : LC
    Codec ID : 40
    Duration : 1h 45mn
    Bit rate mode : Variable
    Bit rate : 157 Kbps
    Maximum bit rate : 221 Kbps
    Channel(s) : 2 channels
    Channel positions : Front: L R
    Sampling rate : 48.0 KHz
    Frame rate : 46.875 fps (1024 spf)
    Compression mode : Lossy
    Stream size : 119 MiB (3%)
    Title : Russian Stereo
    Language : Russian
    Default : Inherited From: 3
    Alternate group : 1
    Encoded date : UTC 2016-02-21 08:48:03
    Tagged date : UTC 2016-02-21 08:48:11
    Fallback From : 3
    Audio #2
    ID : 3
    Format : AC-3
    Format/Info : Audio Coding 3
    Mode extension : CM (complete main)
    Format settings, Endianness : Big
    Codec ID : ac-3
    Duration : 1h 45mn
    Bit rate mode : Constant
    Bit rate : 384 Kbps
    Channel(s) : 6 channels
    Channel positions : Front: L C R, Side: L R, LFE
    Sampling rate : 48.0 KHz
    Frame rate : 31.250 fps (1536 spf)
    Bit depth : 16 bits
    Compression mode : Lossy
    Stream size : 290 MiB (7%)
    Title : Russian DD 5.1
    Language : Russian
    Default : Yes
    Alternate group : 1
    Encoded date : UTC 2016-02-21 08:48:03
    Tagged date : UTC 2016-02-21 08:48:09
    Fallback To : 2
    Menu #1
    00:00:00.000 : Глава 1
    00:05:24.280 : Глава 2
    00:12:39.720 : Глава 3
    00:17:58.600 : Глава 4
    00:24:22.720 : Глава 5
    00:31:16.600 : Глава 6
    00:36:24.200 : Глава 7
    00:41:11.400 : Глава 8
    00:48:53.440 : Глава 9
    00:55:32.640 : Глава 10
    01:02:05.320 : Глава 11
    01:06:26.360 : Глава 12
    01:16:56.080 : Глава 13
    01:24:03.760 : Глава 14
    01:38:04.640 : Глава 15
    Menu #2
    ID : 4
    Codec ID : text
    Duration : 1h 45mn
    Language : Russian
    Encoded date : UTC 2016-02-21 08:48:11
    Tagged date : UTC 2016-02-21 08:48:11
    Menu For : 1
    00:00:00.000 : Глава 1
    00:05:24.280 : Глава 2
    00:12:39.720 : Глава 3
    00:17:58.600 : Глава 4
    00:24:22.720 : Глава 5
    00:31:16.600 : Глава 6
    00:36:24.200 : Глава 7
    00:41:11.400 : Глава 8
    00:48:53.440 : Глава 9
    00:55:32.640 : Глава 10
    01:02:05.320 : Глава 11
    01:06:26.360 : Глава 12
    01:16:56.080 : Глава 13
    01:24:03.760 : Глава 14
    01:38:04.640 : Глава 15
    Bit rate mode : VBR

    Скриншоты

    -

    Релиз подготовлен для просмотра на Apple TV, iPad, iPhone, iPod Touch.
    Для просмотра данного релиза на компьютере с ОС Windows рекомендуется использовать VLC media player
    Скачать .torrent

    Скачать торрент-файл бесплатно и на максимальной скорости!

    Как скачивать? · Что такое торрент? · Рейтинг и ограничения

    !ВНИМАНИЕ!
    Сайт не распространяет и не хранит электронные версии произведений, а занимается лишь лишь предоставлением доступа к создаваемому пользователями каталогу ссылок на торрент-файлы, которые содержат только списки хеш-сумм, убедительная просьба с жалобами обращаться напрямую к пользователю. Файлы для обмена на трекере предоставлены пользователями сайта, и администрация не несёт ответственности за их содержание. Просьба не заливать файлы, защищенные авторскими правами, а также файлы нелегального содержания!


    _________________
    [Профиль] [ЛС]
    Показать сообщения:    
    Ответить на тему

    Текущее время: Сегодня, в 19:52

    Часовой пояс: GMT + 2



    Вы не можете начинать темы
    Вы не можете отвечать на сообщения
    Вы не можете редактировать свои сообщения
    Вы не можете удалять свои сообщения
    Вы не можете голосовать в опросах
    Вы не можете прикреплять файлы к сообщениям
    Вы не можете скачивать файлы