Register  ·  Log in
Forgot password?

  • Мамлюк / Mamluqi (Давид Рондели / Davit Rondeli) [1958, боевик, мелодрама, приключения, военный, DVDRip] Dub (Советский) + Original Geo

    Reply to topic
    Author Message


    Post 21-Feb-2016 00:54



    Мамлюк / Mamluqi
    Жанр: боевик, мелодрама, приключения, военный
    Год выпуска: 1958
    Продолжительность: 01:34:28
    Режиссёр: Давид Рондели / Davit Rondeli
    В ролях: Дато Данелия, В. Джоджуа, М. Лондаридзе, Отар Коберидзе, Акакий Хорава, Лия Элиава, Георгий Шавгулидзе, Дудухана Церодзе, Михаил Вашадзе, Эдишер Магалашвили.
    Описание: Грузия. Вторая половина XVIII века. Чужеземцы похищают детей, чтобы продать в рабство, сделать из них со временем верных и безжалостных воинов. Такая участь постигла Хвичу, который стал доблестным египетским мамлюком Махмудом. Однажды во время битвы воин услышал предсмертный крик на непонятном, но чем-то волнующем его языке…
    ----GCDB--Mamluqi (1958)_DVDRip_Sample_.avi--Качество видео: DVDRip
    Формат видео: AVI
    Видео: 704x528 (1.33:1), 25 fps, XviD build 50 ~2111 kbps avg, 0.23 bit/pixel
    Аудио 1: 48 kHz, AC3 Dolby Digital, 1/0 (C) ch, ~96 kbps, Русский
    Аудио 2: 48 kHz, AC3 Dolby Digital, 1/0 (C) ch, ~112 kbps, Грузинский --- [Отдельно]


    File: Mamluqi (1958)_DVDRip_.avi
    Title: Mamluqi (1958)
    Author: Davit Rondeli
    Copyleft: Ripped_by_rjhlb777
    Genre: Action, Adventure, Romance
    Category: Movie
    Comment: DUB ("Советский")
    FileSize: 1498.14 Mb ( 1 570 916 352 bytes )
    Play length: 01:34:28.680 (141717 frames)
    Subtitles: Not Present
    Video: 704x528 (1.33:1), 25 fps, XviD build 50 ~2111 kbps avg, 0.23 bit/pixel
    Audio: 48 kHz, AC3 Dolby Digital, 1/0 (C) ch, ~96 kbps


    Complete name : C:\Temp\_RELEASES_\Mamluqi (1958)_DVDRip_\Mamluqi (1958)_DVDRip_.avi
    Format : AVI
    Format/Info : Audio Video Interleave
    File size : 1.46 GiB
    Duration : 1h 34mn
    Overall bit rate : 2 217 Kbps
    Movie name : Mamluqi (1958)
    Director : Davit Rondeli
    Genre : Action, Adventure, Romance
    Writing application : VirtualDubMod | || (build 2550/release)
    Original source form/Name : Movie
    Copyright : Ripped_by_rjhlb777
    Comment : DUB ("Советский")
    ID : 0
    Format : MPEG-4 Visual
    Format profile : Advanced Simple@L5
    Format settings, BVOP : 1
    Format settings, QPel : No
    Format settings, GMC : No warppoints
    Format settings, Matrix : Default (MPEG)
    Codec ID : XVID
    Codec ID/Hint : XviD
    Duration : 1h 34mn
    Bit rate : 2 111 Kbps
    Width : 704 pixels
    Height : 528 pixels
    Display aspect ratio : 4:3
    Frame rate : 25.000 fps
    Color space : YUV
    Chroma subsampling : 4:2:0
    Bit depth : 8 bits
    Scan type : Progressive
    Compression mode : Lossy
    Bits/(Pixel*Frame) : 0.227
    Stream size : 1.39 GiB (95%)
    Writing library : XviD 1.2.1 (UTC 2008-12-04)
    ID : 1
    Format : AC-3
    Format/Info : Audio Coding 3
    Mode extension : CM (complete main)
    Format settings, Endianness : Big
    Codec ID : 2000
    Duration : 1h 34mn
    Bit rate mode : Constant
    Bit rate : 96.0 Kbps
    Channel(s) : 1 channel
    Channel positions : Front: C
    Sampling rate : 48.0 KHz
    Compression mode : Lossy
    Stream size : 64.9 MiB (4%)
    Alignment : Split accross interleaves
    Interleave, duration : 40 ms (1.00 video frame)
    Interleave, preload duratio : 500 ms


    Download .torrent

    Download free and at maximum speed!

    How to Download? · What is a torrent? · Ratings and Limitations

    The site does not extend and does not store electronic(digital) versions of products, and only gives access to a reference catalogue created by users on torrent-files which contain only lists of the hash-sums, the earnest entreaty, with complaints(abuse) to access directly to the user. Files for an exchange on tracker are given by users of a site, and the administration does not bear the responsibility for their maintenance. The request to not fill in the files protected by copyrights, and also files of the illegal maintenance!

    [Profile] [PM]
    Display posts from previous:    
    Reply to topic

    The time now is: Today 08:23

    All times are GMT + 3 Hours

    You cannot post new topics in this forum
    You cannot reply to topics in this forum
    You cannot edit your posts in this forum
    You cannot delete your posts in this forum
    You cannot vote in polls in this forum
    You cannot attach files in this forum
    You cannot download files in this forum