BitTorrentTracker PerecTracker.org
BitTorrentTracker PerecTracker.org
    
Регистрация  ·  Вход
 
 · 
Забыли пароль?

  • Шерлок / Sherlock / Сезон: 1-2 / Серии: 6 из 6 (Пол МакГиган / Paul McGuigan, Коки Гидройч, Эрос Лин) [2010 -2012 г.г., триллер, драма, криминал, детектив, BDRip-AVC 720p] [Первый Канал]

    Ответить на тему
     
    Автор Сообщение

    rechyn

    Создавать темы 02-Янв-2014 21:03

           

    [Цитировать]

    Шерлок / Sherlock / Сезон: 1-2 / Серии: 6 из 6-Cлоган: «A new sleuth for the 21st Century»Год выпуска: 2010 - 2012
    Страна: Великобритания
    Студия: Hartswood Films
    Жанр: триллер, драма, криминал, детектив
    Продолжительность: 6 x ~ 01:30:00
    Перевод: Профессиональный (полное дублирование) [Первый Канал]
    Субтитры: Русские / Английские (Софт) (Notabenoid) Хардсаб на надписи. СМС и т.д. (DiamonD)
    Оригинальная аудио дорожка: английский
    Режиссер: Пол МакГиган / Paul McGuigan, Коки Гидройч, Эрос Лин
    Продюссер: Марк Гатисс, Стивен Моффат, Берил Верту
    Сценарий: Марк Гатисс, Стивен Моффат, Артур Конан Дойл
    Премьера в Мире: 25 июля 2010
    Премьера в РФ: 18 сентября 2010
    Релиз на DVD: 1 февраля 2011, «Флагман-Трейд»
    Pелиз на Blu Ray: 23 июня 2011, «Флагман-Трейд»
    Возраст: 16+ - зрителям, достигшим 16 лет

    В ролях: Бенедикт Камбербэтч, Мартин Фриман, Уна Стаббс, Руперт Грейвз, Лу Брили, Марк Гатисс, Эндрю Скотт, Винетт Робинсон, Таня [цензура], Джонатан Арис
    Роли дублировали: Александр Головчанский, Василий Зотов, Андрей Бархударов, Елена Соловьева, Светлана Старикова
    Описание: События разворачиваются в наши дни. Он прошел Афганистан, остался инвалидом. По возвращении в родные края встречается с загадочным, но своеобразным гениальным человеком. Тот в поиске соседа по квартире. Лондон, 2010 год. Происходят необъяснимые убийства. Скотланд-Ярд без понятия, за что хвататься. Существует лишь один человек, который в силах разрешить проблемы и найти ответы на сложные вопросы.

    Серии (6 из 6 / 1 и 2 сезона)

    1 сезон, 1 серия. "Этюд в розовых тонах". 2010 год. Четыре таинственных самоубийства, следующих друг за другом, ставят в тупик лондонскую полицию. Инспектор Скотланд-Ярда Лестрейд обращается за помощью к детективу-консультанту Шерлоку Холмсу. Вместе со своим компаньоном доктором Уотсоном Холмс осматривает заброшенный дом - последнее место происшествия, где найдена мертвой женщина, одетая в розовое. Перед смертью погибшая хотела написать какое-то слово. Используя свое излюбленное орудие — метод дедукции, Холмс приходит к выводу, что все четыре эпизода - дело рук серийного убийцы…
    1 сезон, 2 серия. "Слепой банкир". Университетский приятель Холмса приглашает его расследовать взлом в кабинете президента банка. Воры ничего не взяли, но оставили на стене странные знаки. Холмсу удается вычислить человека, которому адресовано это послание. Им оказывается брокер Ван Кун. Но его обнаруживают застреленным в комнате с закрытыми изнутри окнами и дверями. Вскоре происходит еще одно убийство - журналист с огнестрельным ранением найден у себя дома. В деле фигурируют все те же странные знаки…
    1 сезон, 3 серия. "Большая игра". К Шерлоку обращается его брат Майкрофт с просьбой расследовать смерть госслужащего Эндрю Веста, в руках которого оказалась секретные чертежи ракет. Холмс отказывает. Он намерен заняться делом о взрыве в доме напротив Бейкер-стрит, 221Б, которое предложил ему Лестрейд. Подрывник оставил Шерлоку послание – мобильный телефон с фотографией некой комнаты. А вскоре, на подброшенный Холмсу мобильный поступает звонок от неизвестной плачущей женщины, которая сообщает, что у Шерлока есть только 24 часа на решение предложенной ему загадки, иначе подрывник продолжит свое дело...
    2 сезон, 1 серия. "Скандал в Белгравии". Таинственное происшествие под Лондоном вызывает интерес Шерлока. Но когда он решает вплотную заняться делом о заглохшей машине, Майкрофт неожиданно просит о помощи. Щекотливая история об аферистке Ирэн Адлер и двусмысленных фотографиях, компрометирующих самых высокопоставленных лиц страны, перерастает в дело, напрямую затрагивающее вопросы национальной безопасности. Чем обернется оно для прославленного сыщика?
    2 сезон, 2 серия. "Собаки Баскервиля". К Шерлоку за помощью обращается сэр Генри. В детстве, он стал свидетелем гибели своего отца из-за гигантской собаки-монстра. С тех пор Генри преследуют ночные кошмары, а теперь к ним добавились еще и страшные предчувствия. Шерлок и Ватсон отправляются в поместье Генри. Недалеко от него, в местечке Баскервиль, находится военная база, на которой проводят сверхсекретные эксперименты…
    2 сезон, 3 серия. "Рейхенбахский водопад". Давний противник Холмса Джеймс Мориарти проникает в Лондонский Тауэр, где выставлены драгоценности английской короны, нейтрализует охрану и разбивает витрину. Полицейские находят его сидящим на троне в королевской короне. В это же время Холмс получает от Мориарти сообщение: "Выходи – поиграем". Над преступником должен состояться суд, на котором Холмс будет выступать в качестве свидетеля…

    MediaInfo

    General
    Unique ID : 211104175653614716457255123098730788378 (0x9ED12F71A1FAF8FB9268E3E970DC761A)
    Complete name : N:HDШерлокШерлок - Сезон 2Серия 01 - Скандал в Белгравии.mkv
    Format : Matroska
    File size : 2.86 GiB
    Duration : 1h 29mn
    Overall bit rate : 4 578 Kbps
    Movie name : Sherlock S02E01 - Release by DiamonD
    Encoded date : UTC 2012-02-02 13:06:39
    Writing application : mkvmerge v2.8.0 ('The Tree') built on May 9 2009 18:02:06
    Writing library : libebml v0.7.7 + libmatroska v0.8.1
    Video
    ID : 1
    Format : AVC
    Format/Info : Advanced Video Codec
    Format profile : High@L4.1
    Format settings, CABAC : Yes
    Format settings, ReFrames : 4 frames
    Format settings, GOP : M=4, N=26
    Codec ID : V_MPEG4/ISO/AVC
    Duration : 1h 29mn
    Bit rate : 4 000 Kbps
    Width : 1 280 pixels
    Height : 720 pixels
    Display aspect ratio : 16:9
    Frame rate : 25.000 fps
    Color space : YUV
    Chroma subsampling : 4:2:0
    Bit depth : 8 bits
    Scan type : Progressive
    Bits/(Pixel*Frame) : 0.174
    Stream size : 2.45 GiB (85%)
    Title : [ BDRip | 720p | x264 | 4000 Kbps ]
    Writing library : x264 core 116 r2074 2641b9e
    Encoding settings : cabac=1 / ref=3 / deblock=1:-1:-1 / analyse=0x3:0x113 / me=hex / subme=7 / psy=1 / psy_rd=1.00:0.15 / mixed_ref=1 / me_range=16 / chroma_me=1 / trellis=1 / 8x8dct=1 / cqm=0 / deadzone=21,11 / fast_pskip=1 / chroma_qp_offset=-3 / threads=3 / sliced_threads=0 / nr=0 / decimate=1 / interlaced=0 / bluray_compat=0 / constrained_intra=0 / bframes=3 / b_pyramid=2 / b_adapt=1 / b_bias=0 / direct=1 / weightb=1 / open_gop=0 / weightp=2 / keyint=250 / keyint_min=25 / scenecut=40 / intra_refresh=0 / rc_lookahead=40 / rc=2pass / mbtree=1 / bitrate=4000 / ratetol=1.0 / qcomp=0.60 / qpmin=0 / qpmax=69 / qpstep=4 / cplxblur=20.0 / qblur=0.5 / ip_ratio=1.40 / aq=1:1.00
    Language : English
    Audio #1
    ID : 2
    Format : AC-3
    Format/Info : Audio Coding 3
    Mode extension : CM (complete main)
    Codec ID : A_AC3
    Duration : 1h 29mn
    Bit rate mode : Constant
    Bit rate : 192 Kbps
    Channel(s) : 2 channels
    Channel positions : Front: L R
    Sampling rate : 48.0 KHz
    Bit depth : 16 bits
    Compression mode : Lossy
    Stream size : 123 MiB (4%)
    Title : [ AC3 | 2 channels | 192 kbps | Дубляж ]
    Language : Russian
    Audio #2
    ID : 3
    Format : AC-3
    Format/Info : Audio Coding 3
    Mode extension : CM (complete main)
    Codec ID : A_AC3
    Duration : 1h 29mn
    Bit rate mode : Constant
    Bit rate : 384 Kbps
    Channel(s) : 6 channels
    Channel positions : Front: L C R, Side: L R, LFE
    Sampling rate : 48.0 KHz
    Bit depth : 16 bits
    Compression mode : Lossy
    Stream size : 246 MiB (8%)
    Title : [ AC3 | 6 channels | 384 kbps | Original ]
    Language : English
    Text #1
    ID : 4
    Format : UTF-8
    Codec ID : S_TEXT/UTF8
    Codec ID/Info : UTF-8 Plain Text
    Title : [ SRT | Full ]
    Language : Russian
    Text #2
    ID : 5
    Format : UTF-8
    Codec ID : S_TEXT/UTF8
    Codec ID/Info : UTF-8 Plain Text
    Title : [ SRT | Full ]
    Language : English
    Качество: BDRip-AVC 720p
    Формат: MKV
    Видео кодек: H.264
    Аудио кодек: AC3
    Видео: 1280x720 (1.778); 25.000 fps; 4 000 Kbps
    Аудио 1: [RUS] AC3; 48.0 KHz; 2 ch; 192 Kbps (Дубляж)
    Аудио 2: [ENG] AC3; 48.0 KHz; 6 ch; 384 Kbps (Original)

    Скриншоты


    Скачать .torrent

    Скачать торрент-файл бесплатно и на максимальной скорости!

    Как скачивать? · Что такое торрент? · Рейтинг и ограничения

    !ВНИМАНИЕ!
    Сайт не распространяет и не хранит электронные версии произведений, а занимается лишь лишь предоставлением доступа к создаваемому пользователями каталогу ссылок на торрент-файлы, которые содержат только списки хеш-сумм, убедительная просьба с жалобами обращаться напрямую к пользователю. Файлы для обмена на трекере предоставлены пользователями сайта, и администрация не несёт ответственности за их содержание. Просьба не заливать файлы, защищенные авторскими правами, а также файлы нелегального содержания!


    _________________
    [Профиль] [ЛС]
    Показать сообщения:    
    Ответить на тему

    Текущее время: Сегодня, в 00:20

    Часовой пояс: GMT + 2



    Вы не можете начинать темы
    Вы не можете отвечать на сообщения
    Вы не можете редактировать свои сообщения
    Вы не можете удалять свои сообщения
    Вы не можете голосовать в опросах
    Вы не можете прикреплять файлы к сообщениям
    Вы не можете скачивать файлы