BitTorrentTracker PerecTracker.org
BitTorrentTracker PerecTracker.org
    
Регистрация  ·  Вход
 
 · 
Забыли пароль?

  • Лист моих желаний / La liste de mes envies (Дидье Ле Пешор / Didier Le Pecheur) [2014, Франция, драма, комедия, HDRip] MVO (Back Board Cinema)

    Ответить на тему
     
    Автор Сообщение

    rechyn

    Создавать темы 20-Фев-2016 19:43

           

    [Цитировать]

    Лист моих желаний / La liste de mes envies
    Страна: Франция
    Жанр: драма, комедия
    Годы выпуска: 2014
    Продолжительность: 01:38:03
    Перевод: Профессиональный (многоголосый закадровый) Студия "Back Board Cinema" по заказу телеканала КИНО ТВ. Роли озвучивали: Светлана Шейченко, Татьяна Кулакова, Светлана Климович, Артём Веселов. Перевод Юлианы Погосовой
    Cубтитры: нет
    Режиссер: Дидье Ле Пешор / Didier Le Pecheur
    В ролях: Матильда Сенье, Марк Лавуан, Фредерик Бель, Вирджини Хок, Патрик Шене, Тифани Хаас, Жюльен Буасселье, Мишель Вюйермоз
    Описание: Хозяйка маленького магазина выигрывает в лотерею 18 миллионов. Привыкшая жить скромно, но счастливо в кругу своей семьи и друзей, она не знает, как распорядиться этой суммой, и боится перемен к худшему. Но однажды судьба сама решает за нее…
    Доп. информация:
    Качество видео: HDRip | BDRip 1080p
    Формат видео: AVI
    Видео: 720x304 (2.37:1), 24.000 fps, XviD build 73 ~1928 kbps avg, 0.37 bit/pixel
    Аудио: 48 kHz, AC3 Dolby Digital, 2/0 (L,R) ch, ~192 kbps

    MediaInfo

    General
    Complete name : C:\Users\User\Desktop\RuTracker\La.liste.de.mes.envies.2014.HDRip.MVO_by_LBS.avi
    Format : AVI
    Format/Info : Audio Video Interleave
    File size : 1.46 GiB
    Duration : 1h 38mn
    Overall bit rate : 2 130 Kbps
    Director : Last Boy Scout
    Writing application : VirtualDubMod 1.5.10.3 | www.virtualdub-fr.org || (build 2550/release)
    Copyright : perectracker.org 20.02.2016
    Comment : HDRip MVO
    Video
    ID : 0
    Format : MPEG-4 Visual
    Format profile : Advanced Simple@L5
    Format settings, BVOP : 1
    Format settings, QPel : No
    Format settings, GMC : No warppoints
    Format settings, Matrix : Custom
    Codec ID : XVID
    Codec ID/Hint : XviD
    Duration : 1h 38mn
    Bit rate : 1 928 Kbps
    Width : 720 pixels
    Height : 304 pixels
    Display aspect ratio : 2.35:1
    Frame rate : 24.000 fps
    Color space : YUV
    Chroma subsampling : 4:2:0
    Bit depth : 8 bits
    Scan type : Progressive
    Compression mode : Lossy
    Bits/(Pixel*Frame) : 0.367
    Stream size : 1.32 GiB (91%)
    Writing library : XviD 73
    Audio
    ID : 1
    Format : AC-3
    Format/Info : Audio Coding 3
    Mode extension : CM (complete main)
    Format settings, Endianness : Big
    Codec ID : 2000
    Duration : 1h 38mn
    Bit rate mode : Constant
    Bit rate : 192 Kbps
    Channel(s) : 2 channels
    Channel positions : Front: L R
    Sampling rate : 48.0 KHz
    Bit depth : 16 bits
    Compression mode : Lossy
    Stream size : 135 MiB (9%)
    Alignment : Split accross interleaves
    Interleave, duration : 42 ms (1.00 video frame)
    Interleave, preload duration : 500 ms

    Скриншоты

    -
    Скачать .torrent

    Скачать торрент-файл бесплатно и на максимальной скорости!

    Как скачивать? · Что такое торрент? · Рейтинг и ограничения

    !ВНИМАНИЕ!
    Сайт не распространяет и не хранит электронные версии произведений, а занимается лишь лишь предоставлением доступа к создаваемому пользователями каталогу ссылок на торрент-файлы, которые содержат только списки хеш-сумм, убедительная просьба с жалобами обращаться напрямую к пользователю. Файлы для обмена на трекере предоставлены пользователями сайта, и администрация не несёт ответственности за их содержание. Просьба не заливать файлы, защищенные авторскими правами, а также файлы нелегального содержания!


    _________________
    [Профиль] [ЛС]
    Показать сообщения:    
    Ответить на тему

    Текущее время: Сегодня, в 20:14

    Часовой пояс: GMT + 2



    Вы не можете начинать темы
    Вы не можете отвечать на сообщения
    Вы не можете редактировать свои сообщения
    Вы не можете удалять свои сообщения
    Вы не можете голосовать в опросах
    Вы не можете прикреплять файлы к сообщениям
    Вы не можете скачивать файлы