BitTorrentTracker PerecTracker.org
BitTorrentTracker PerecTracker.org
    
Регистрация  ·  Вход
 
 · 
Забыли пароль?

  • Сводные судьбы / Серии: 1-4 из 4 (Екатерина Шагалова) [2015, мелодрама, WEBRip]

    Ответить на тему
     
    Автор Сообщение

    rechyn

    Создавать темы 20-Фев-2016 17:31

           

    [Цитировать]

    Сводные судьбы
    Год выпуска: 2015
    Производство: Марс Медиа Энтертейнмент
    Жанр: мелодрама
    Продолжительность: ~00:44:00 серия
    Субтитры: нет
    Режиссёр: Екатерина Шагалова
    В ролях: Юрий Беляев, Светлана Антонова, Ольга Лерман, Юлия Кокрятская, Алексей Лукин, Ярослав Бойко, Никита Тезин, Эвклид Кюрдзидис, Юлия Пивень, Татьяна Лютаева, Сергей Шеховцов, Анна Шерлинг, Евгений Зеленский, Александр Андриенко
    Описание: Немолодой бизнесмен Роберт Шатов узнает, что смертельно болен, и жить ему осталось не больше месяца. Он решает разыскать и собрать под одной крышей трех своих взрослых дочерей — «ошибки молодости». Поначалу девушки встречают отца и друг друга в штыки. Но постепенно лед начинает таять… Сбудется ли мечта Роберта — станут ли сводные сестры одной семьей?
    Кинопоиск
    Все раздачи сериала
    Sample
    Качество: WEBRip
    Формат: AVI
    Видео кодек: XviD
    Аудио кодек: AC3
    Видео: 720x400 (1.80:1), 25 fps, XviD build 73 ~1499 kbps avg, 0.21 bit/pixel
    Аудио: 48 kHz, AC3 Dolby Digital, 2/0 (L,R) ch, ~ 192 kbps

    MI

    General
    Complete name : E:\Сводные судьбы 2015\Сводные судьбы 2015 серия 1.avi
    Format : AVI
    Format/Info : Audio Video Interleave
    File size : 546 MiB
    Duration : 44mn 50s
    Overall bit rate : 1 701 Kbps
    Writing application : VirtualDubMod 1.5.10.3 | www.virtualdub-fr.org || (build 2550/release)
    Writing library : VirtualDubMod build 2550/release
    Video
    ID : 0
    Format : MPEG-4 Visual
    Format profile : Advanced Simple@L5
    Format settings, BVOP : 1
    Format settings, QPel : No
    Format settings, GMC : No warppoints
    Format settings, Matrix : Custom
    Codec ID : XVID
    Codec ID/Hint : XviD
    Duration : 44mn 50s
    Bit rate : 1 499 Kbps
    Width : 720 pixels
    Height : 400 pixels
    Display aspect ratio : 16:9
    Frame rate : 25.000 fps
    Color space : YUV
    Chroma subsampling : 4:2:0
    Bit depth : 8 bits
    Scan type : Progressive
    Compression mode : Lossy
    Bits/(Pixel*Frame) : 0.208
    Stream size : 481 MiB (88%)
    Writing library : XviD 73
    Audio
    ID : 1
    Format : AC-3
    Format/Info : Audio Coding 3
    Mode extension : CM (complete main)
    Format settings, Endianness : Big
    Codec ID : 2000
    Duration : 44mn 50s
    Bit rate mode : Constant
    Bit rate : 192 Kbps
    Channel count : 2 channels
    Channel positions : Front: L R
    Sampling rate : 48.0 KHz
    Bit depth : 16 bits
    Compression mode : Lossy
    Stream size : 61.6 MiB (11%)
    Alignment : Split accross interleaves
    Interleave, duration : 40 ms (1.00 video frame)
    Interleave, preload duration : 500 ms

    Скриншоты

    Скачать .torrent

    Скачать торрент-файл бесплатно и на максимальной скорости!

    Как скачивать? · Что такое торрент? · Рейтинг и ограничения

    !ВНИМАНИЕ!
    Сайт не распространяет и не хранит электронные версии произведений, а занимается лишь лишь предоставлением доступа к создаваемому пользователями каталогу ссылок на торрент-файлы, которые содержат только списки хеш-сумм, убедительная просьба с жалобами обращаться напрямую к пользователю. Файлы для обмена на трекере предоставлены пользователями сайта, и администрация не несёт ответственности за их содержание. Просьба не заливать файлы, защищенные авторскими правами, а также файлы нелегального содержания!


    _________________
    [Профиль] [ЛС]
    Показать сообщения:    
    Ответить на тему

    Текущее время: Сегодня, в 23:16

    Часовой пояс: GMT + 2



    Вы не можете начинать темы
    Вы не можете отвечать на сообщения
    Вы не можете редактировать свои сообщения
    Вы не можете удалять свои сообщения
    Вы не можете голосовать в опросах
    Вы не можете прикреплять файлы к сообщениям
    Вы не можете скачивать файлы