Register  ·  Log in
Forgot password?

  • Сводные судьбы / Серии: 1-4 из 4 (Екатерина Шагалова) [2015, мелодрама, WEBRip]

    Reply to topic
    Author Message


    Post 20-Feb-2016 18:31



    Сводные судьбы
    Год выпуска: 2015
    Производство: Марс Медиа Энтертейнмент
    Жанр: мелодрама
    Продолжительность: ~00:44:00 серия
    Субтитры: нет
    Режиссёр: Екатерина Шагалова
    В ролях: Юрий Беляев, Светлана Антонова, Ольга Лерман, Юлия Кокрятская, Алексей Лукин, Ярослав Бойко, Никита Тезин, Эвклид Кюрдзидис, Юлия Пивень, Татьяна Лютаева, Сергей Шеховцов, Анна Шерлинг, Евгений Зеленский, Александр Андриенко
    Описание: Немолодой бизнесмен Роберт Шатов узнает, что смертельно болен, и жить ему осталось не больше месяца. Он решает разыскать и собрать под одной крышей трех своих взрослых дочерей — «ошибки молодости». Поначалу девушки встречают отца и друг друга в штыки. Но постепенно лед начинает таять… Сбудется ли мечта Роберта — станут ли сводные сестры одной семьей?
    Все раздачи сериала
    Качество: WEBRip
    Формат: AVI
    Видео кодек: XviD
    Аудио кодек: AC3
    Видео: 720x400 (1.80:1), 25 fps, XviD build 73 ~1499 kbps avg, 0.21 bit/pixel
    Аудио: 48 kHz, AC3 Dolby Digital, 2/0 (L,R) ch, ~ 192 kbps


    Complete name : E:\Сводные судьбы 2015\Сводные судьбы 2015 серия 1.avi
    Format : AVI
    Format/Info : Audio Video Interleave
    File size : 546 MiB
    Duration : 44mn 50s
    Overall bit rate : 1 701 Kbps
    Writing application : VirtualDubMod | || (build 2550/release)
    Writing library : VirtualDubMod build 2550/release
    ID : 0
    Format : MPEG-4 Visual
    Format profile : Advanced Simple@L5
    Format settings, BVOP : 1
    Format settings, QPel : No
    Format settings, GMC : No warppoints
    Format settings, Matrix : Custom
    Codec ID : XVID
    Codec ID/Hint : XviD
    Duration : 44mn 50s
    Bit rate : 1 499 Kbps
    Width : 720 pixels
    Height : 400 pixels
    Display aspect ratio : 16:9
    Frame rate : 25.000 fps
    Color space : YUV
    Chroma subsampling : 4:2:0
    Bit depth : 8 bits
    Scan type : Progressive
    Compression mode : Lossy
    Bits/(Pixel*Frame) : 0.208
    Stream size : 481 MiB (88%)
    Writing library : XviD 73
    ID : 1
    Format : AC-3
    Format/Info : Audio Coding 3
    Mode extension : CM (complete main)
    Format settings, Endianness : Big
    Codec ID : 2000
    Duration : 44mn 50s
    Bit rate mode : Constant
    Bit rate : 192 Kbps
    Channel count : 2 channels
    Channel positions : Front: L R
    Sampling rate : 48.0 KHz
    Bit depth : 16 bits
    Compression mode : Lossy
    Stream size : 61.6 MiB (11%)
    Alignment : Split accross interleaves
    Interleave, duration : 40 ms (1.00 video frame)
    Interleave, preload duration : 500 ms


    Download .torrent

    Download free and at maximum speed!

    How to Download? · What is a torrent? · Ratings and Limitations

    The site does not extend and does not store electronic(digital) versions of products, and only gives access to a reference catalogue created by users on torrent-files which contain only lists of the hash-sums, the earnest entreaty, with complaints(abuse) to access directly to the user. Files for an exchange on tracker are given by users of a site, and the administration does not bear the responsibility for their maintenance. The request to not fill in the files protected by copyrights, and also files of the illegal maintenance!

    [Profile] [PM]
    Display posts from previous:    
    Reply to topic

    The time now is: Today 19:11

    All times are GMT + 3 Hours

    You cannot post new topics in this forum
    You cannot reply to topics in this forum
    You cannot edit your posts in this forum
    You cannot delete your posts in this forum
    You cannot vote in polls in this forum
    You cannot attach files in this forum
    You cannot download files in this forum