BitTorrentTracker PerecTracker.org
BitTorrentTracker PerecTracker.org
    
Регистрация  ·  Вход
 
 · 
Забыли пароль?

  • Сводные судьбы / Серии: 1-4 из 4 (Екатерина Шагалова) [2015, мелодрама, WEBRip 1080p]

    Ответить на тему
     
    Автор Сообщение

    rechyn

    Создавать темы 20-Фев-2016 17:29

           

    [Цитировать]

    Сводные судьбы
    Год выпуска: 2015
    Производство: Марс Медиа Энтертейнмент
    Жанр: мелодрама
    Продолжительность: ~00:44:00 серия
    Субтитры: нет
    Режиссёр: Екатерина Шагалова
    В ролях: Юрий Беляев, Светлана Антонова, Ольга Лерман, Юлия Кокрятская, Алексей Лукин, Ярослав Бойко, Никита Тезин, Эвклид Кюрдзидис, Юлия Пивень, Татьяна Лютаева, Сергей Шеховцов, Анна Шерлинг, Евгений Зеленский, Александр Андриенко
    Описание: Немолодой бизнесмен Роберт Шатов узнает, что смертельно болен, и жить ему осталось не больше месяца. Он решает разыскать и собрать под одной крышей трех своих взрослых дочерей — «ошибки молодости». Поначалу девушки встречают отца и друг друга в штыки. Но постепенно лед начинает таять… Сбудется ли мечта Роберта — станут ли сводные сестры одной семьей?

    Все раздачи сериала
    Sample
    Качество: WEBRip 1080p
    Формат: MKV
    Видео кодек: H.264
    Аудио кодек: AC3
    Видео: MPEG4 AVC Video, H264, 16:9, 1920x1080, 25 fps, ~2490 kbps 0.048 bit/pixel
    Аудио: AC3 Dolby Digital, 48 kHz, 2/0 (L,R) ch, 192 kbps

    MI

    General
    Unique ID : 178757247752332551534410821757438550478 (0x867B64C46D73C4FDBB5879A3971861CE)
    Complete name : E:\Сводные судьбы 2015 WEBRip 1080p\Сводные судьбы 01 WEBRip 1080p.mkv
    Format : Matroska
    Format version : Version 4 / Version 2
    File size : 880 MiB
    Duration : 44mn 50s
    Overall bit rate mode : Variable
    Overall bit rate : 2 743 Kbps
    Encoded date : UTC 2016-02-17 01:51:16
    Writing application : mkvmerge v6.1.0 ('Old Devil') built on Mar 2 2013 14:32:37
    Writing library : libebml v1.3.0 + libmatroska v1.4.0
    Video
    ID : 1
    Format : AVC
    Format/Info : Advanced Video Codec
    Format profile : High@L4.0
    Format settings, CABAC : Yes
    Format settings, ReFrames : 2 frames
    Codec ID : V_MPEG4/ISO/AVC
    Duration : 44mn 50s
    Bit rate mode : Variable
    Bit rate : 2 497 Kbps
    Maximum bit rate : 40.0 Mbps
    Width : 1 920 pixels
    Height : 1 080 pixels
    Display aspect ratio : 16:9
    Frame rate mode : Constant
    Frame rate : 25.000 fps
    Color space : YUV
    Chroma subsampling : 4:2:0
    Bit depth : 8 bits
    Scan type : Progressive
    Bits/(Pixel*Frame) : 0.048
    Stream size : 801 MiB (91%)
    Default : Yes
    Forced : Yes
    Audio
    ID : 2
    Format : AC-3
    Format/Info : Audio Coding 3
    Mode extension : CM (complete main)
    Format settings, Endianness : Big
    Codec ID : A_AC3
    Duration : 44mn 50s
    Bit rate mode : Constant
    Bit rate : 192 Kbps
    Channel count : 2 channels
    Channel positions : Front: L R
    Sampling rate : 48.0 KHz
    Bit depth : 16 bits
    Compression mode : Lossy
    Stream size : 61.6 MiB (7%)
    Language : Russian
    Default : Yes
    Forced : Yes

    Скриншоты

    Скачать .torrent

    Скачать торрент-файл бесплатно и на максимальной скорости!

    Как скачивать? · Что такое торрент? · Рейтинг и ограничения

    !ВНИМАНИЕ!
    Сайт не распространяет и не хранит электронные версии произведений, а занимается лишь лишь предоставлением доступа к создаваемому пользователями каталогу ссылок на торрент-файлы, которые содержат только списки хеш-сумм, убедительная просьба с жалобами обращаться напрямую к пользователю. Файлы для обмена на трекере предоставлены пользователями сайта, и администрация не несёт ответственности за их содержание. Просьба не заливать файлы, защищенные авторскими правами, а также файлы нелегального содержания!


    _________________
    [Профиль] [ЛС]
    Показать сообщения:    
    Ответить на тему

    Текущее время: Сегодня, в 14:41

    Часовой пояс: GMT + 2



    Вы не можете начинать темы
    Вы не можете отвечать на сообщения
    Вы не можете редактировать свои сообщения
    Вы не можете удалять свои сообщения
    Вы не можете голосовать в опросах
    Вы не можете прикреплять файлы к сообщениям
    Вы не можете скачивать файлы