Register  ·  Log in
Forgot password?

  • Сводные судьбы / Серии: 1-4 из 4 (Екатерина Шагалова) [2015, мелодрама, WEBRip 1080p]

    Reply to topic
    Author Message


    Post 20-Feb-2016 18:29



    Сводные судьбы
    Год выпуска: 2015
    Производство: Марс Медиа Энтертейнмент
    Жанр: мелодрама
    Продолжительность: ~00:44:00 серия
    Субтитры: нет
    Режиссёр: Екатерина Шагалова
    В ролях: Юрий Беляев, Светлана Антонова, Ольга Лерман, Юлия Кокрятская, Алексей Лукин, Ярослав Бойко, Никита Тезин, Эвклид Кюрдзидис, Юлия Пивень, Татьяна Лютаева, Сергей Шеховцов, Анна Шерлинг, Евгений Зеленский, Александр Андриенко
    Описание: Немолодой бизнесмен Роберт Шатов узнает, что смертельно болен, и жить ему осталось не больше месяца. Он решает разыскать и собрать под одной крышей трех своих взрослых дочерей — «ошибки молодости». Поначалу девушки встречают отца и друг друга в штыки. Но постепенно лед начинает таять… Сбудется ли мечта Роберта — станут ли сводные сестры одной семьей?

    Все раздачи сериала
    Качество: WEBRip 1080p
    Формат: MKV
    Видео кодек: H.264
    Аудио кодек: AC3
    Видео: MPEG4 AVC Video, H264, 16:9, 1920x1080, 25 fps, ~2490 kbps 0.048 bit/pixel
    Аудио: AC3 Dolby Digital, 48 kHz, 2/0 (L,R) ch, 192 kbps


    Unique ID : 178757247752332551534410821757438550478 (0x867B64C46D73C4FDBB5879A3971861CE)
    Complete name : E:\Сводные судьбы 2015 WEBRip 1080p\Сводные судьбы 01 WEBRip 1080p.mkv
    Format : Matroska
    Format version : Version 4 / Version 2
    File size : 880 MiB
    Duration : 44mn 50s
    Overall bit rate mode : Variable
    Overall bit rate : 2 743 Kbps
    Encoded date : UTC 2016-02-17 01:51:16
    Writing application : mkvmerge v6.1.0 ('Old Devil') built on Mar 2 2013 14:32:37
    Writing library : libebml v1.3.0 + libmatroska v1.4.0
    ID : 1
    Format : AVC
    Format/Info : Advanced Video Codec
    Format profile : High@L4.0
    Format settings, CABAC : Yes
    Format settings, ReFrames : 2 frames
    Codec ID : V_MPEG4/ISO/AVC
    Duration : 44mn 50s
    Bit rate mode : Variable
    Bit rate : 2 497 Kbps
    Maximum bit rate : 40.0 Mbps
    Width : 1 920 pixels
    Height : 1 080 pixels
    Display aspect ratio : 16:9
    Frame rate mode : Constant
    Frame rate : 25.000 fps
    Color space : YUV
    Chroma subsampling : 4:2:0
    Bit depth : 8 bits
    Scan type : Progressive
    Bits/(Pixel*Frame) : 0.048
    Stream size : 801 MiB (91%)
    Default : Yes
    Forced : Yes
    ID : 2
    Format : AC-3
    Format/Info : Audio Coding 3
    Mode extension : CM (complete main)
    Format settings, Endianness : Big
    Codec ID : A_AC3
    Duration : 44mn 50s
    Bit rate mode : Constant
    Bit rate : 192 Kbps
    Channel count : 2 channels
    Channel positions : Front: L R
    Sampling rate : 48.0 KHz
    Bit depth : 16 bits
    Compression mode : Lossy
    Stream size : 61.6 MiB (7%)
    Language : Russian
    Default : Yes
    Forced : Yes


    Download .torrent

    Download free and at maximum speed!

    How to Download? · What is a torrent? · Ratings and Limitations

    The site does not extend and does not store electronic(digital) versions of products, and only gives access to a reference catalogue created by users on torrent-files which contain only lists of the hash-sums, the earnest entreaty, with complaints(abuse) to access directly to the user. Files for an exchange on tracker are given by users of a site, and the administration does not bear the responsibility for their maintenance. The request to not fill in the files protected by copyrights, and also files of the illegal maintenance!

    [Profile] [PM]
    Display posts from previous:    
    Reply to topic

    The time now is: Today 23:30

    All times are GMT + 3 Hours

    You cannot post new topics in this forum
    You cannot reply to topics in this forum
    You cannot edit your posts in this forum
    You cannot delete your posts in this forum
    You cannot vote in polls in this forum
    You cannot attach files in this forum
    You cannot download files in this forum