BitTorrentTracker PerecTracker.org
BitTorrentTracker PerecTracker.org
    
Регистрация  ·  Вход
 
 · 
Забыли пароль?

  • Приговор идеальной пары / Серии: 1-4 из 4 (Роман Бровко) [2015, мелодрама, HDTV 1080i]

    Ответить на тему
     
    Автор Сообщение

    rechyn

    Создавать темы 20-Фев-2016 17:27

           

    [Цитировать]

    Приговор идеальной пары

    Год выпуска: 2015
    Производство: Star Media
    Жанр: мелодрама
    Продолжительность: ~00:47:00 серия
    Субтитры: нет
    Режиссёр: Роман Бровко
    В ролях: Кирилл Жандаров, Мария Валешная, Ольга Олексий, Римма Зюбина, Никита Салопин, Виктор Кручина, Анна Топчий, Олег Примогенов
    Описание: Наталья и Жанна – сводные сестры. Несмотря на то, что они воспитывались в одной семье, сестры отличаются друг от друга как небо и земля. Наталья всегда привыкла рассчитывать на собственные силы и добивается в жизни всё сама. Наталья построила бизнес, приносящий хорошую прибыль, и целенаправленно расширяет его. У Натальи есть любимый муж и шикарная квартира. В это время Жанна, решив пойти легким путем, выходит замуж за состоятельного человека. На первый взгляд, жизнь наладилась у обеих, но беда притаилась и ждет благоприятного момента, чтобы нанести удар неожиданно…

    Все раздачи сериала
    Sample
    Качество: HDTV 1080i
    Формат: TS
    Видео кодек: AVC
    Аудио кодек: MP2
    Видео: MPEG4 AVC Video, H264, 16:9, 1920x1080, 25 fps, ~7865 kbps
    Аудио: MP2, 2 ch, 192 kbps, 16 bits, 48.0 KHz

    MI

    General
    ID : 1 (0x1)
    Complete name : E:\Приговор идеальной пары 2015 HDTV 1080i\Prigovor.idealnoj.pary.01.2015.HDTV.1080i.ts
    Format : MPEG-TS
    File size : 2.83 GiB
    Duration : 47mn 45s
    Overall bit rate mode : Variable
    Overall bit rate : 8 477 Kbps
    Video
    ID : 2911 (0xB5F)
    Menu ID : 1119 (0x45F)
    Format : AVC
    Format/Info : Advanced Video Codec
    Format profile : High@L4.0
    Format settings, CABAC : Yes
    Format settings, ReFrames : 4 frames
    Codec ID : 27
    Duration : 47mn 45s
    Bit rate : 7 865 Kbps
    Width : 1 920 pixels
    Height : 1 080 pixels
    Display aspect ratio : 16:9
    Frame rate : 25.000 fps
    Color space : YUV
    Chroma subsampling : 4:2:0
    Bit depth : 8 bits
    Scan type : MBAFF
    Bits/(Pixel*Frame) : 0.152
    Stream size : 2.62 GiB (93%)
    Audio
    ID : 2912 (0xB60)
    Menu ID : 1119 (0x45F)
    Format : MPEG Audio
    Format version : Version 1
    Format profile : Layer 2
    Mode : Joint stereo
    Mode extension : Intensity Stereo + MS Stereo
    Codec ID : 3
    Duration : 47mn 45s
    Bit rate mode : Constant
    Bit rate : 192 Kbps
    Channel count : 2 channels
    Sampling rate : 48.0 KHz
    Compression mode : Lossy
    Stream size : 65.6 MiB (2%)
    Language : Russian

    Скриншоты

    Скачать .torrent

    Скачать торрент-файл бесплатно и на максимальной скорости!

    Как скачивать? · Что такое торрент? · Рейтинг и ограничения

    !ВНИМАНИЕ!
    Сайт не распространяет и не хранит электронные версии произведений, а занимается лишь лишь предоставлением доступа к создаваемому пользователями каталогу ссылок на торрент-файлы, которые содержат только списки хеш-сумм, убедительная просьба с жалобами обращаться напрямую к пользователю. Файлы для обмена на трекере предоставлены пользователями сайта, и администрация не несёт ответственности за их содержание. Просьба не заливать файлы, защищенные авторскими правами, а также файлы нелегального содержания!


    _________________
    [Профиль] [ЛС]
    Показать сообщения:    
    Ответить на тему

    Текущее время: Сегодня, в 20:52

    Часовой пояс: GMT + 2



    Вы не можете начинать темы
    Вы не можете отвечать на сообщения
    Вы не можете редактировать свои сообщения
    Вы не можете удалять свои сообщения
    Вы не можете голосовать в опросах
    Вы не можете прикреплять файлы к сообщениям
    Вы не можете скачивать файлы