Register  ·  Log in
Forgot password?

  • Приговор идеальной пары / Серии: 1-4 из 4 (Роман Бровко) [2015, мелодрама, HDTV 1080i]

    Reply to topic
    Author Message


    Post 20-Feb-2016 18:27



    Приговор идеальной пары

    Год выпуска: 2015
    Производство: Star Media
    Жанр: мелодрама
    Продолжительность: ~00:47:00 серия
    Субтитры: нет
    Режиссёр: Роман Бровко
    В ролях: Кирилл Жандаров, Мария Валешная, Ольга Олексий, Римма Зюбина, Никита Салопин, Виктор Кручина, Анна Топчий, Олег Примогенов
    Описание: Наталья и Жанна – сводные сестры. Несмотря на то, что они воспитывались в одной семье, сестры отличаются друг от друга как небо и земля. Наталья всегда привыкла рассчитывать на собственные силы и добивается в жизни всё сама. Наталья построила бизнес, приносящий хорошую прибыль, и целенаправленно расширяет его. У Натальи есть любимый муж и шикарная квартира. В это время Жанна, решив пойти легким путем, выходит замуж за состоятельного человека. На первый взгляд, жизнь наладилась у обеих, но беда притаилась и ждет благоприятного момента, чтобы нанести удар неожиданно…

    Все раздачи сериала
    Качество: HDTV 1080i
    Формат: TS
    Видео кодек: AVC
    Аудио кодек: MP2
    Видео: MPEG4 AVC Video, H264, 16:9, 1920x1080, 25 fps, ~7865 kbps
    Аудио: MP2, 2 ch, 192 kbps, 16 bits, 48.0 KHz


    ID : 1 (0x1)
    Complete name : E:\Приговор идеальной пары 2015 HDTV 1080i\Prigovor.idealnoj.pary.01.2015.HDTV.1080i.ts
    Format : MPEG-TS
    File size : 2.83 GiB
    Duration : 47mn 45s
    Overall bit rate mode : Variable
    Overall bit rate : 8 477 Kbps
    ID : 2911 (0xB5F)
    Menu ID : 1119 (0x45F)
    Format : AVC
    Format/Info : Advanced Video Codec
    Format profile : High@L4.0
    Format settings, CABAC : Yes
    Format settings, ReFrames : 4 frames
    Codec ID : 27
    Duration : 47mn 45s
    Bit rate : 7 865 Kbps
    Width : 1 920 pixels
    Height : 1 080 pixels
    Display aspect ratio : 16:9
    Frame rate : 25.000 fps
    Color space : YUV
    Chroma subsampling : 4:2:0
    Bit depth : 8 bits
    Scan type : MBAFF
    Bits/(Pixel*Frame) : 0.152
    Stream size : 2.62 GiB (93%)
    ID : 2912 (0xB60)
    Menu ID : 1119 (0x45F)
    Format : MPEG Audio
    Format version : Version 1
    Format profile : Layer 2
    Mode : Joint stereo
    Mode extension : Intensity Stereo + MS Stereo
    Codec ID : 3
    Duration : 47mn 45s
    Bit rate mode : Constant
    Bit rate : 192 Kbps
    Channel count : 2 channels
    Sampling rate : 48.0 KHz
    Compression mode : Lossy
    Stream size : 65.6 MiB (2%)
    Language : Russian


    Download .torrent

    Download free and at maximum speed!

    How to Download? · What is a torrent? · Ratings and Limitations

    The site does not extend and does not store electronic(digital) versions of products, and only gives access to a reference catalogue created by users on torrent-files which contain only lists of the hash-sums, the earnest entreaty, with complaints(abuse) to access directly to the user. Files for an exchange on tracker are given by users of a site, and the administration does not bear the responsibility for their maintenance. The request to not fill in the files protected by copyrights, and also files of the illegal maintenance!

    [Profile] [PM]
    Display posts from previous:    
    Reply to topic

    The time now is: Today 11:54

    All times are GMT + 3 Hours

    You cannot post new topics in this forum
    You cannot reply to topics in this forum
    You cannot edit your posts in this forum
    You cannot delete your posts in this forum
    You cannot vote in polls in this forum
    You cannot attach files in this forum
    You cannot download files in this forum