BitTorrentTracker PerecTracker.org
BitTorrentTracker PerecTracker.org
    
Регистрация  ·  Вход
 
 · 
Забыли пароль?

  • Хозяйка / «Одна шахта, Одна хозяйка, Одна жизнь» / Серии: 1-24 из 24 (Бата Недич) [2016, Мелодрама, WEBRip]

    Ответить на тему
     
    Автор Сообщение

    rechyn

    Создавать темы 20-Фев-2016 17:14

           

    [Цитировать]

    Хозяйка «Одна шахта, Одна хозяйка, Одна жизнь»
    Год выпуска: 2016
    Производство: 1+1 Продакшн
    Жанр: Мелодрама
    Продолжительность: 00:53:00
    Субтитры: Нет
    Режиссёр: Бата Недич
    В ролях: Екатерина Варченко, Станислав Боклан, Елена Стефанская, Анна Кошмал, Марк Дробот, Александр Попов (IV), Оксана Коляденко
    Описание: Действие сериала Хозяйка разворачивается в шахтерском городке. Это мелодрама о поиске себя и любви, которая побеждает все преграды. Формат заинтересовал нас противостоянием двух женщин, молодой шахтерки и "хозяйки" шахты и всего города.
    В центре сюжета сериала Хозяйка — сильная молодая женщина, мать-одиночка Наташа Суворова. Она под давлением обстоятельств вынуждена работать в угледобывающей шахте Алмазная, единственном источнике дохода провинциального городка, и терпеть насмешки со стороны рабочих. Но когда во главе шахты становится столичный предприниматель Александр, в жизни Натальи все начинает меняться…
    В нашей версии события происходят более динамично, чем в оригинале, ведь у нас не 128 серий, а всего 24 серии.

    Подробно о сериале:

    1+1 Продакшн начал съемки 24-серийного сериала под рабочим названием Хозяйка. Это адаптация латиноамериканской теленовеллы La Patrona, успешно прошедшей в Латинской Америке. Режиссером украинской версии стал Бата Недич, известный своими работами Ангел-хранитель, Исцеление любовью, Волчица и др.
    Сценарий адаптации написала самая публикуемая писательница Украины Ирина Чернова, больше известная читателям под псевдонимом Люко Дашвар. Главные роли сыграют украинские актеры Станислав Боклан, Елена Стефанская, Марк Дробот.
    "1+1 Продакшн продолжает активную работу над созданием качественного сериального продукта. Для съемок Хозяйки мы собрали очень крепкую команду. Впереди долгая дорога к зрителю, но все участники съемочного процесса влюблены в сценарий и работают с огромным удовольствием. Надеемся, этот продукт придется по душе нашему зрителю", — говорит Елена Еремеева, креативный продюсер 1+1 Продакшн.
    Главная героиня бросает вызов коррумпированной системе родного города. Хотя история позаимствована у мексиканских авторов, мы восприняли ее скорее как отправную точку, как универсальную проблему противостояния богатых и бедных.
    В нашей версии события происходят более динамично, чем в оригинале, ведь у нас не 128 серий, а всего 24. Главная героиня Наташа (Е.Варченко) сталкивается с трагической несправедливостью, но не боится ей противостоять. Алина Сергеевна (Е.Стефанская) — это удивительный персонаж, женщина, которая любит власть не просто страстно, а даже маниакально.
    Думаю, это будет очень актуальное кино, затрагивающее наболевшие темы, с очень смелыми и острыми сюжетными ходами", — говорит Елена Васильева, главный продюсер фильмов и сериалов на канале 1+1.
    В центре сюжета сериала Хозяйка — сильная молодая женщина, мать-одиночка Наташа Суворова. Она под давлением обстоятельств вынуждена работать в угледобывающей шахте Алмазная, единственном источнике дохода провинциального городка, и терпеть насмешки со стороны рабочих. Но когда во главе шахты становится столичный предприниматель Александр, в жизни Натальи все начинает меняться…

    -
    Доп. информация: Реклама отсутствует!
    -
    Все раздачи сериала:
    Сэмпл:
    Качество: WEBRip
    Формат: AVI
    Видео кодек: XviD
    Аудио кодек: MP3
    Видео: 720x400, 25 fps, XviD, ~1500 kbps, 0.229 bit/pixel
    Аудио: 44,1 kHz, MPEG Layer 3, 2 ch, 192 kbps

    MI

    Общее
    Полное имя : U:\Сериалы (2015)\Хозяйка (2016) WEB-DLRip\Хозяйка.(01.seriya).2016.XviD.WEB-DLRip.by.simka.avi
    Формат : AVI
    Формат/Информация : Audio Video Interleave
    Размер файла : 626 Мбайт
    Продолжительность : 50 м.
    Общий поток : 1726 Кбит/сек
    Программа кодирования : VirtualDubMod 1.5.10.3 | www.virtualdub-fr.org || (build 2550/release)
    Библиотека кодирования : VirtualDubMod build 2550/release
    Видео
    Идентификатор : 0
    Формат : MPEG-4 Visual
    Профиль формата : Advanced Simple@L5
    Параметр BVOP формата : 1
    Параметр QPel формата : Нет
    Параметр GMC формата : Без точки перехода
    Параметр матрицы формата : Default (MPEG)
    Идентификатор кодека : XVID
    Идентификатор кодека/Подсказка : XviD
    Продолжительность : 50 м.
    Битрейт : 1524 Кбит/сек
    Ширина : 720 пикселей
    Высота : 400 пикселей
    Соотношение сторон : 16:9
    Частота кадров : 25,000 кадров/сек
    Цветовое пространство : YUV
    Субдискретизация насыщенности : 4:2:0
    Битовая глубина : 8 бит
    Тип развёртки : Прогрессивная
    Метод сжатия : С потерями
    Бит/(Пиксели*Кадры) : 0.212
    Размер потока : 553 Мбайт (88%)
    Библиотека кодирования : XviD 1.2.1 (UTC 2008-12-04)
    Аудио
    Идентификатор : 1
    Формат : MPEG Audio
    Версия формата : Version 1
    Профиль формата : Layer 3
    Режим : Joint stereo
    Расширение режима : MS Stereo
    Идентификатор кодека : 55
    Идентификатор кодека/Подсказка : MP3
    Продолжительность : 50 м.
    Вид битрейта : Постоянный
    Битрейт : 192 Кбит/сек
    Каналы : 2 канала
    Частота : 44,1 КГц
    Метод сжатия : С потерями
    Размер потока : 69,7 Мбайт (11%)
    Выравнивание : Разделение по промежуткам
    Продолжительность промежутка : 40 мс. (1,00 видеокадр)
    Время предзагрузки промежутка : 500 мс.
    Библиотека кодирования : LAME3.99r
    Настройки программы : -m j -V 4 -q 2 -lowpass 18.6 -b 192

    Скриншоты

    Скачать .torrent

    Скачать торрент-файл бесплатно и на максимальной скорости!

    Как скачивать? · Что такое торрент? · Рейтинг и ограничения

    !ВНИМАНИЕ!
    Сайт не распространяет и не хранит электронные версии произведений, а занимается лишь лишь предоставлением доступа к создаваемому пользователями каталогу ссылок на торрент-файлы, которые содержат только списки хеш-сумм, убедительная просьба с жалобами обращаться напрямую к пользователю. Файлы для обмена на трекере предоставлены пользователями сайта, и администрация не несёт ответственности за их содержание. Просьба не заливать файлы, защищенные авторскими правами, а также файлы нелегального содержания!


    _________________
    [Профиль] [ЛС]
    Показать сообщения:    
    Ответить на тему

    Текущее время: Сегодня, в 08:59

    Часовой пояс: GMT + 2



    Вы не можете начинать темы
    Вы не можете отвечать на сообщения
    Вы не можете редактировать свои сообщения
    Вы не можете удалять свои сообщения
    Вы не можете голосовать в опросах
    Вы не можете прикреплять файлы к сообщениям
    Вы не можете скачивать файлы