BitTorrentTracker PerecTracker.org
BitTorrentTracker PerecTracker.org
    
Регистрация  ·  Вход
 
 · 
Забыли пароль?

  • Выжить после / Сезон: 2 / Серии: 1-12 из 12 (Душан Глигоров, Александр Богуславский) [2015, Фантастика, триллер, WEBRip]

    Ответить на тему
     
    Автор Сообщение

    rechyn

    Создавать темы 20-Фев-2016 17:10

           

    [Цитировать]

    Выжить после-Год выпуска: 2015
    Производство: «Арт Пикчерс Вижн» по заказу СТС
    Жанр: Фантастика, триллер
    Продолжительность: 00:47:00
    Субтитры: отсутствуют--Режиссёр: Душан Глигоров, Александр Богуславский
    В ролях: Иван Макаревич, Шамиль Хаматов, Галина Звягинцева, Дмитрий Ендальцев, Евгения Розанова, Сергей Годин, Любовь Аксёнова, Валерия Федорович, Ольга Новосад, Александр Галибин, Вероника Айги, Евгений Вильтовский, Бибигуль Суюншалина и др.-Описание: Одиннадцать молодых людей заперты в подземном бункере. Они не знают друг друга. Никто из них не помнит, как здесь оказался. И, самое главное, они не в курсе, что творится снаружи. Их выбрали для эксперимента. Могущественная корпорация «Вершина» разрабатывает вирус, цель которого - создание новой расы идеальных людей, готовых выполнять волю их творца. Но все идёт не по плану… Вирус вырывается из-под контроля и превращается в смертельное оружие… Теперь полем для экспериментов становится вся Москва! В считанные часы погибают десятки тысяч людей. В городе объявлена эвакуация. Все виды связи прерваны. Москва опустела.--Релиз от
    Реклама отсутствует!--Сэмпл: http://multi-up.com/1087252-Качество: WEBRip
    Формат: AVI
    Видео кодек: XVID
    Аудио кодек: AC3
    Видео: 720x400 (16:9), 25.000 fps, ~1570 kbps avg, 0.218 bit/pixel
    Аудио Rus: 44.1 KHz, 2 channels, ~192 kbps

    MI

    General
    Complete name : E:\Выжить после (Сезон 2) WEBRip.Выжить после-2.2015.WEB-DLRip.RG.Russkie.serialy.&.Files-x.avi
    Format : AVI
    Format/Info : Audio Video Interleave
    File size : 606 MiB
    Duration : 47mn 47s
    Overall bit rate : 1 774 Kbps
    Writing application : VirtualDubMod 1.5.10.3 (build 2550/release)
    Writing library : VirtualDubMod build 2550/release
    Video
    ID : 0
    Format : MPEG-4 Visual
    Format profile : Advanced Simple@L5
    Format settings, BVOP : 1
    Format settings, QPel : No
    Format settings, GMC : No warppoints
    Format settings, Matrix : Custom
    Codec ID : XVID
    Codec ID/Hint : XviD
    Duration : 47mn 47s
    Bit rate : 1 572 Kbps
    Width : 720 pixels
    Height : 400 pixels
    Display aspect ratio : 16:9
    Frame rate : 25.000 fps
    Color space : YUV
    Chroma subsampling : 4:2:0
    Bit depth : 8 bits
    Scan type : Progressive
    Compression mode : Lossy
    Bits/(Pixel*Frame) : 0.218
    Stream size : 537 MiB (89%)
    Writing library : XviD 73
    Audio
    ID : 1
    Format : AC-3
    Format/Info : Audio Coding 3
    Mode extension : CM (complete main)
    Format settings, Endianness : Big
    Codec ID : 2000
    Duration : 47mn 47s
    Bit rate mode : Constant
    Bit rate : 192 Kbps
    Channel count : 2 channels
    Channel positions : Front: L R
    Sampling rate : 44.1 KHz
    Bit depth : 16 bits
    Compression mode : Lossy
    Stream size : 65.6 MiB (11%)
    Alignment : Split accross interleaves
    Interleave, duration : 40 ms (1.00 video frame)
    Interleave, preload duration : 500 ms

    Скриншоты

    --
    Скачать .torrent

    Скачать торрент-файл бесплатно и на максимальной скорости!

    Как скачивать? · Что такое торрент? · Рейтинг и ограничения

    !ВНИМАНИЕ!
    Сайт не распространяет и не хранит электронные версии произведений, а занимается лишь лишь предоставлением доступа к создаваемому пользователями каталогу ссылок на торрент-файлы, которые содержат только списки хеш-сумм, убедительная просьба с жалобами обращаться напрямую к пользователю. Файлы для обмена на трекере предоставлены пользователями сайта, и администрация не несёт ответственности за их содержание. Просьба не заливать файлы, защищенные авторскими правами, а также файлы нелегального содержания!


    _________________
    [Профиль] [ЛС]
    Показать сообщения:    
    Ответить на тему

    Текущее время: Сегодня, в 03:28

    Часовой пояс: GMT + 2



    Вы не можете начинать темы
    Вы не можете отвечать на сообщения
    Вы не можете редактировать свои сообщения
    Вы не можете удалять свои сообщения
    Вы не можете голосовать в опросах
    Вы не можете прикреплять файлы к сообщениям
    Вы не можете скачивать файлы