BitTorrentTracker PerecTracker.org
BitTorrentTracker PerecTracker.org
    
Регистрация  ·  Вход
 
 · 
Забыли пароль?

  • На глубине / Сезон: 1 / Серии: 1-16 из 16 (Ярослав Мочалов) [2015, Криминал, WEBRip]

    Ответить на тему
     
    Автор Сообщение

    rechyn

    Создавать темы 20-Фев-2016 17:01

           

    [Цитировать]

    На глубинеГод выпуска: 2015
    Производство: Россия,"Про-Синема продакшн" и "НТВ-Кино"
    Жанр: Криминал
    Продолжительность: ~00:45:00
    Субтитры: нет
    Режиссёр: Ярослав Мочалов
    В ролях: Алексей Гуськов, Дмитрий Ратомский, Полина Сидихина, Михаил Бабичев, Виктория Герасимова, Игорь Бочкин, Василий Бочкарёв, Олег Тактаров, Игорь Савочкин, Сергей Астахов, Юрий Сафаров, Михаил Вологдин, Олег Васильков, Сергей Быстрицкий, Михаил Полицеймако, Алексей Фатеев, Илья Исаев, Эдуард Османов, Олег Чевелёв, Лариса Домаскина, Сослан Фидаров, Алексей Ошурков, Иван Мамонов, Александр Аноприков, Владимир Чуприков, Андрей Бархударов, Алексей Огурцов, Андрей Феськов, Андрей Сорока, Дмитрий Бедерин, Татьяна Демидова, Владимир Шульга, Михаил Солодко, Сергей Карякин, Игорь Огурцов, Олег Сурнов, Ольга Аксёнова, Дмитрий Блажко, Константин Тополага, Сергей Легостаев, Роман Фролов, Ричард Бондарев, Александр Голубков (II), Денис Давыдов, Сергей Беляев, Денис Бобышев, Алайбек Тойчубеков, Виктория Лукина, Игорь Волокитин, Андрей Ташков, Константин Игнатьев (II), Дмитрий Муляр, Евгения Бордзиловская
    Описание: Сформированное подразделение из резервов полиции работает под прикрытием в глубине преступной сети разрабатывая деятельность особо опасных преступников. Во главе группы стоит человек способный в нужный момент сплотить всех членов команды и в активе которого целый набор инструментов характеризующих его, как целеустремленного и вызывающего безоговорочное доверия со стороны всех, кто его окружает. Сам по себе майор Жур непростой и, как в таких случаях бывает неугодный для начальства. Начальство его терпеть не может за прямоту и зачастую неординарные действия по обезвреживанию бандитов. К себе в команду майор взял троих: Селима Дениса Крылова — и Алову которую буквально «вытащил из-под земли» — раньше она работала в УВД при метрополитене. Отряд должен будет выйти на торговцев оружием, для чего Селиму придется сыграть роль одного из заказчиков. Для успешного расследования дела о похищении людей самому Журу нужно будет «подставиться», чтобы попасть в плен к банде, которая удерживает заложника. Нелегкая роль в одной из операций по поиску наркоторговцев ждет и Алову, до работы в органах сталкивавшуюся с наркозависимостью. А внедрение в банду торговцев алмазами станет непростым испытанием для Дениса из-за дружеских отношений с одним из преступников, пренебречь которыми оказывается не так уж легко..
    Все раздачи сериала
    СЕМПЛ
    Качество: WEBRip
    Формат: AVI
    Видео кодек: XviD
    Аудио кодек: AC3
    Видео: 720x400 (1.80:1), 25 fps, XviD build 73 ~1517 kbps avg, 0.22 bit/pixel
    Аудио: 48 kHz, AC3 Dolby Digital, 2/0 (L,R) ch, ~192.00 kbps avg

    MediaInfo

    General
    Complete name : Y:\раздачи\Na.glubine.2014.WEB-DLRip.RG.Russkie.serialy.&.Files-x.Na.glubine.2014.WEB-DLRip.RG.Russkie.serialy.&.Files-x.avi
    Format : AVI
    Format/Info : Audio Video Interleave
    File size : 550 MiB
    Duration : 45mn 8s
    Overall bit rate : 1 704 Kbps
    Writing application : VirtualDubMod 1.5.10.3 | www.virtualdub-fr.org || (build 2550/release)
    Writing library : VirtualDubMod build 2550/release
    Video
    ID : 0
    Format : MPEG-4 Visual
    Format profile : Advanced Simple@L5
    Format settings, BVOP : 1
    Format settings, QPel : No
    Format settings, GMC : No warppoints
    Format settings, Matrix : Custom
    Codec ID : XVID
    Codec ID/Hint : XviD
    Duration : 45mn 8s
    Bit rate : 1 503 Kbps
    Width : 720 pixels
    Height : 400 pixels
    Display aspect ratio : 16:9
    Frame rate : 25.000 fps
    Color space : YUV
    Chroma subsampling : 4:2:0
    Bit depth : 8 bits
    Scan type : Progressive
    Compression mode : Lossy
    Bits/(Pixel*Frame) : 0.209
    Stream size : 485 MiB (88%)
    Writing library : XviD 73
    Audio
    ID : 1
    Format : AC-3
    Format/Info : Audio Coding 3
    Mode extension : CM (complete main)
    Format settings, Endianness : Big
    Codec ID : 2000
    Duration : 45mn 8s
    Bit rate mode : Constant
    Bit rate : 192 Kbps
    Channel(s) : 2 channels
    Channel positions : Front: L R
    Sampling rate : 48.0 KHz
    Compression mode : Lossy
    Stream size : 62.0 MiB (11%)
    Alignment : Split accross interleaves
    Interleave, duration : 40 ms (1.00 video frame)
    Interleave, preload duratio : 500 ms
    Сторонней рекламы нет!

    Скриншоты

    Скачать .torrent

    Скачать торрент-файл бесплатно и на максимальной скорости!

    Как скачивать? · Что такое торрент? · Рейтинг и ограничения

    !ВНИМАНИЕ!
    Сайт не распространяет и не хранит электронные версии произведений, а занимается лишь лишь предоставлением доступа к создаваемому пользователями каталогу ссылок на торрент-файлы, которые содержат только списки хеш-сумм, убедительная просьба с жалобами обращаться напрямую к пользователю. Файлы для обмена на трекере предоставлены пользователями сайта, и администрация не несёт ответственности за их содержание. Просьба не заливать файлы, защищенные авторскими правами, а также файлы нелегального содержания!


    _________________
    [Профиль] [ЛС]
    Показать сообщения:    
    Ответить на тему

    Текущее время: Сегодня, в 06:06

    Часовой пояс: GMT + 2



    Вы не можете начинать темы
    Вы не можете отвечать на сообщения
    Вы не можете редактировать свои сообщения
    Вы не можете удалять свои сообщения
    Вы не можете голосовать в опросах
    Вы не можете прикреплять файлы к сообщениям
    Вы не можете скачивать файлы