BitTorrentTracker PerecTracker.org
BitTorrentTracker PerecTracker.org
    
Регистрация  ·  Вход
 
 · 
Забыли пароль?

  • Культ / Серии: 1-12 из 12 (Олег Фесенко) [2015, Драма, приключения, HDTVRip]

    Ответить на тему
     
    Автор Сообщение

    rechyn

    Создавать темы 20-Фев-2016 16:57

           

    [Цитировать]

    Культ-Год выпуска: 2015
    Производство: Украина, Россия, Star Media
    Жанр: Драма, приключения
    Продолжительность: 12 х ~ 00:45:00
    Субтитры: Нет-Режиссёр: Олег Фесенко
    В ролях: Дмитрий Марьянов, Татьяна Арнтгольц, Артур Сопельник, Дмитрий Бикбаев, Константин Крюков, Андрей Зибров, Алина Сергеева, Артур Бесчастный, Валерий Николаев, Анастасия Клименко-Описание: Группа молодых россиян становится послушниками секты «Моментум», базирующейся в небольшой латиноамериканской стране Вендора. Родственники ребят, стремясь уберечь детей от неминуемой смерти, нанимают профессионального военного. Полностью доверившись ему, прибывают в Вендору. Однако вскоре становится ясно, что у нанятого профессионала есть свои интересы в этой опасной стране…-Релиз: Rip by olegka7373 от RG GeneralFilm
    Реклама: Отсутствует
    Все раздачи сериала
    Семпл-Качество: HDTVRip
    Формат: AVI
    Видео кодек: XviD
    Аудио кодек: AC3
    Видео: MPEG4, XviD, 720x400 (16:9), 25.000 fps, ~ 1 700 Kbps (0.231 bit/pixel)
    Аудио: AC3, 48.0 KHz, 2 ch, 192 Kbps, CBR

    MI

    General
    Complete name : E:\Фильмы\Kult.HDTVRip.GeneralFilm\Kult.01.HDTVRip.GeneralFilm.avi
    Format : AVI
    Format/Info : Audio Video Interleave
    File size : 601 MiB
    Duration : 45mn 4s
    Overall bit rate : 1 864 Kbps
    Writing application : VirtualDubMod 1.5.10.3 | www.virtualdub-fr.org || (build 2550/release)
    Writing library : VirtualDubMod build 2550/release
    Video
    ID : 0
    Format : MPEG-4 Visual
    Format profile : Advanced Simple@L5
    Format settings, BVOP : Yes
    Format settings, QPel : No
    Format settings, GMC : No warppoints
    Format settings, Matrix : Custom
    Codec ID : XVID
    Codec ID/Hint : XviD
    Duration : 45mn 4s
    Bit rate : 1 662 Kbps
    Width : 720 pixels
    Height : 400 pixels
    Display aspect ratio : 16:9
    Frame rate : 25.000 fps
    Color space : YUV
    Chroma subsampling : 4:2:0
    Bit depth : 8 bits
    Scan type : Progressive
    Compression mode : Lossy
    Bits/(Pixel*Frame) : 0.231
    Stream size : 536 MiB (89%)
    Writing library : XviD 73
    Audio
    ID : 1
    Format : AC-3
    Format/Info : Audio Coding 3
    Mode extension : CM (complete main)
    Format settings, Endianness : Big
    Codec ID : 2000
    Duration : 45mn 4s
    Bit rate mode : Constant
    Bit rate : 192 Kbps
    Channel(s) : 2 channels
    Channel positions : Front: L R
    Sampling rate : 48.0 KHz
    Bit depth : 16 bits
    Compression mode : Lossy
    Stream size : 61.9 MiB (10%)
    Alignment : Split accross interleaves
    Interleave, duration : 40 ms (1.00 video frame)
    Interleave, preload duration : 500 ms

    Скриншоты

    Скачать .torrent

    Скачать торрент-файл бесплатно и на максимальной скорости!

    Как скачивать? · Что такое торрент? · Рейтинг и ограничения

    !ВНИМАНИЕ!
    Сайт не распространяет и не хранит электронные версии произведений, а занимается лишь лишь предоставлением доступа к создаваемому пользователями каталогу ссылок на торрент-файлы, которые содержат только списки хеш-сумм, убедительная просьба с жалобами обращаться напрямую к пользователю. Файлы для обмена на трекере предоставлены пользователями сайта, и администрация не несёт ответственности за их содержание. Просьба не заливать файлы, защищенные авторскими правами, а также файлы нелегального содержания!


    _________________
    [Профиль] [ЛС]
    Показать сообщения:    
    Ответить на тему

    Текущее время: Сегодня, в 20:28

    Часовой пояс: GMT + 2



    Вы не можете начинать темы
    Вы не можете отвечать на сообщения
    Вы не можете редактировать свои сообщения
    Вы не можете удалять свои сообщения
    Вы не можете голосовать в опросах
    Вы не можете прикреплять файлы к сообщениям
    Вы не можете скачивать файлы