BitTorrentTracker PerecTracker.org
BitTorrentTracker PerecTracker.org
    
Регистрация  ·  Вход
 
 · 
Забыли пароль?

  • Гордость и предубеждение и зомби / Pride and Prejudice and Zombies (Бёрр Стирс / Burr Steers) [2016, США, Ужасы, Боевик, Мелодрама, CamRip] Dub

    Ответить на тему
     
    Автор Сообщение

    rechyn

    Создавать темы 20-Фев-2016 16:38

           

    [Цитировать]

    Гордость и предубеждение и зомби / Pride and Prejudice and Zombies-Производство: США / Allison Shearmur Productions, Cross Creek Pictures, Darko Entertainment, Handsomecharlie Films
    Жанр: Ужасы, Боевик, Мелодрама
    Перевод: Дублированный
    Субтитры: отсутствуют
    Продолжительность: 01:51:15
    Режиссер: Бёрр Стирс / Burr Steers
    Продюсер: Марк Бутан, Шон МакКиттрик, Брайан Оливер
    Актеры: Лили Джеймс, Сэм Райли, Белла Хиткот, Элли Бамбер, Милли Брэйди, Сьюки Уотерхаус, Дуглас Бут, Сэлли Филлипс, Чарльз Дэнс, Джек Хьюстон
    Описание:
    Элизабет Беннет и ее сестры вынуждены противостоять заполонившим Англию ходячим мертвецам, а мистер Дарси выступает наставником девиц, обучающим их основам выживания.

    Дата мировой премьеры: 21 января 2016
    Дата премьеры в России: 18 февраля 2016, «Централ Партнершип»

    Реклама: Присутствуют голосовые вставки рекламы.
    Качество видео: CamRip
    Формат: AVI
    Видео: Xvid, 720x320, ~1860 Kbps
    Аудио: AC3, 2 ch, 192 kbps, CBR
    Семпл: Скачать

    Mediainfo:

    Формат : AVI
    Формат/Информация : Audio Video Interleave
    Размер файла : 1,45 Гбайт
    Продолжительность : 1 ч. 40 м.
    Общий поток : 2064 Кбит/сек
    Программа кодирования : VirtualDubMod 1.5.10.3 | www.virtualdub-fr.org || (build 2550/release)
    Библиотека кодирования : VirtualDubMod build 2550/release
    Видео
    Идентификатор : 0
    Формат : MPEG-4 Visual
    Профиль формата : Advanced Simple@L5
    Параметр BVOP формата : 2
    Параметр QPel формата : Нет
    Параметр GMC формата : Без точки перехода
    Параметр матрицы формата : Default (MPEG)
    Идентификатор кодека : XVID
    Идентификатор кодека/Подсказка : XviD
    Продолжительность : 1 ч. 40 м.
    Битрейт : 1860 Кбит/сек
    Ширина : 720 пикселей
    Высота : 320 пикселей
    Соотношение сторон : 2,25:1
    Частота кадров : 29,970 кадров/сек
    Цветовое пространство : YUV
    Субдискретизация насыщенности : 4:2:0
    Битовая глубина : 8 бит
    Тип развёртки : Прогрессивная
    Метод сжатия : С потерями
    Бит/(Пиксели*Кадры) : 0.269
    Размер потока : 1,31 Гбайт (90%)
    Библиотека кодирования : XviD 1.2.1 (UTC 2008-12-04)
    Аудио
    Идентификатор : 1
    Формат : AC-3
    Формат/Информация : Audio Coding 3
    Расширение режима : CM (complete main)
    Параметр Endianness формата : Big
    Идентификатор кодека : 2000
    Продолжительность : 1 ч. 40 м.
    Вид битрейта : Постоянный
    Битрейт : 192 Кбит/сек
    Каналы : 2 канала
    Расположение каналов : Front: L R
    Частота : 48,0 КГц
    Метод сжатия : С потерями
    Размер потока : 139 Мбайт (9%)
    Выравнивание : Разделение по промежуткам
    Продолжительность промежутка : 33 мс. (1,00 видеокадр)
    Время предзагрузки промежутка : 500 мс.

    Скриншоты:
    Скачать .torrent

    Скачать торрент-файл бесплатно и на максимальной скорости!

    Как скачивать? · Что такое торрент? · Рейтинг и ограничения

    !ВНИМАНИЕ!
    Сайт не распространяет и не хранит электронные версии произведений, а занимается лишь лишь предоставлением доступа к создаваемому пользователями каталогу ссылок на торрент-файлы, которые содержат только списки хеш-сумм, убедительная просьба с жалобами обращаться напрямую к пользователю. Файлы для обмена на трекере предоставлены пользователями сайта, и администрация не несёт ответственности за их содержание. Просьба не заливать файлы, защищенные авторскими правами, а также файлы нелегального содержания!


    _________________
    [Профиль] [ЛС]
    Показать сообщения:    
    Ответить на тему

    Текущее время: Сегодня, в 14:44

    Часовой пояс: GMT + 2



    Вы не можете начинать темы
    Вы не можете отвечать на сообщения
    Вы не можете редактировать свои сообщения
    Вы не можете удалять свои сообщения
    Вы не можете голосовать в опросах
    Вы не можете прикреплять файлы к сообщениям
    Вы не можете скачивать файлы