BitTorrentTracker PerecTracker.org
BitTorrentTracker PerecTracker.org
    
Регистрация  ·  Вход
 
 · 
Забыли пароль?

  • Виктор Франкенштейн / Victor Frankenstein (Пол МакГиган / Paul McGuigan ) [2015, США, Ужасы, фантастика, драма, WEB-DL, HD (720p)] DUB + Original + sub (rus, ukr, eng)

    Ответить на тему
     
    Автор Сообщение

    Flirldrerve

    Создавать темы 20-Фев-2016 11:30

           

    [Цитировать]

    Виктор Франкенштейн / Victor Frankenstein
    «Монстр создал монстра»
    6.559 / 10 6.30 / 10
    -Год выпуска: 2015
    Страна: США
    Жанр: Ужасы, фантастика, драма
    Продолжительность: 01:50:24
    Перевод: Дублированный (iTunes)
    Оригинальная аудиодорожка: Есть
    Cубтитры: Русские форсмрованные, Украинские форсмрованные, Русские, Украинские, Английские
    Режиссёр: Пол МакГиган
    Сценарий: Макс Лэндис, Мэри Шелли
    Продюсер: Джон Дэвис, Маири Бетт, Дерек Дочи
    Оператор: Фабиан Вагнер
    Композитор: Крэйг Армстронг
    Художник: Ив Стюарт, Грант Армстронг, Рави Бансал
    Монтаж: Эндрю Хьюм, Чарли Филлипс
    В ролях: Дэниэл Рэдклифф, Джессика Браун-Финдли, Бронсон Уэбб, Джеймс МакЭвой, Дэниэл Мейс, Спенсер Уидлинг, Робин Пирс, Эндрю Скотт, Каллум Тернер, Ди Ботчер
    Сборы в США: $5 775 076
    Сборы в мире: + $28 365 388 = $34 140 464
    Сборы в России: $3 226 126
    Мировая премьера: 10 ноября 2015
    Премьера (РФ): 26 ноября 2015, «Двадцатый Век Фокс СНГ»
    Описание: Новый взгляд на фантастическую историю Виктора Франкенштейна, на этот раз — с точки зрения его помощника Игоря.-Качество исходника: WEB-DL 720p (NNMClub)
    Качество: WEB-DL
    Тип: HD (720p)
    Контейнер: M4V
    Видео: H.264, 1280x528, 2.40:1, 4 030 Kbps, 23.976 (23976/1000) fps
    Аудио 1: Русский/Дублированный (iTunes), AAC / 2.0 / 157 Kbps / 48.0 KHz
    Аудио 2: Английский/Оригинальная дорожка , AAC / 2.0 / 156 Kbps / 48.0 KHz
    Аудио 3: Украинский/Дублированный (iTunes), AAC / 2.0 / 158 Kbps / 48.0 KHz
    Аудио 4: Русский/Дублированный (iTunes), AC-3 / 5.1 / 384 Kbps / 48.0 KHz
    Субтитры 1: Русские форсмрованные
    Субтитры 2: Украинские форсмрованные
    Субтитры 3: Русские полные
    Субтитры 4: Украинские полные
    Субтитры 5: Английские полные
    -

    iTunes Meta Tags

    Sort Name: Victor Frankenstein
    XID: Apple:vendor_id:2015-596985
    contentID: 1052947436
    Copyright: © 2015 Twentieth Century Fox Film Corporation. All rights reserved.
    Screenwriters: Макс Лэндис, Мэри Шелли
    Producers: Джон Дэвис, Маири Бетт, Дерек Дочи
    Director: Пол МакГиган
    Cast: Дэниэл Рэдклифф, Джессика Браун-Финдли, Бронсон Уэбб, Джеймс МакЭвой, Дэниэл Мейс, Спенсер Уидлинг, Робин Пирс, Эндрю Скотт, Каллум Тернер, Ди Ботчер, Игорь Сергеев, Варвара Шалагина, Александр Койгеров, Геннадий Меньшиков, Стас Войнич
    Studio: 20th Century Fox
    Rating: 4
    Long Description: Новый взгляд на фантастическую историю Виктора Франкенштейна, на этот раз - с точки зрения его помощника Игоря.
    Description: Новый взгляд на фантастическую историю Виктора Франкенштейна, на этот раз - с точки зрения его помощника Игоря.
    Release Date: 2015-11-10T08:00:00Z
    Genre: Action & Adventure
    Artist: Paul McGuigan
    Name: Victor Frankenstein

    MediaInfo

    General
    Complete name : /Users/imac/HandBrake/Victor.Frankenstein.WEB-DL.720p.m4v
    Format : MPEG-4
    Codec ID : M4V  (M4V /M4A /mp42/isom)
    File size : 3.77 GiB
    Duration : 1h 50mn
    Overall bit rate mode : Variable
    Overall bit rate : 4 892 Kbps
    Movie name : Victor Frankenstein
    Performer : Paul McGuigan
    Director : Пол МакГиган
    Actor : Дэниэл Рэдклифф / Джессика Браун-Финдли / Бронсон Уэбб / Джеймс МакЭвой / Дэниэл Мейс / Спенсер Уидлинг / Робин Пирс / Эндрю Скотт / Каллум Тернер / Ди Ботчер / Игорь Сергеев / Варвара Шалагина / Александр Койгеров / Геннадий Меньшиков / Стас Войнич
    Screenplay by : Макс Лэндис / Мэри Шелли
    Producer : Джон Дэвис / Маири Бетт / Дерек Дочи
    Production studio : 20th Century Fox
    Genre : Action & Adventure
    ContentType : Short Film
    Description : Новый взгляд на фантастическую историю Виктора Франкенштейна, на этот раз - с точки зрения его помощника Игоря.
    Recorded date : UTC 2015-11-10 08:00:00
    Encoded date : UTC 2016-02-20 08:52:26
    Tagged date : UTC 2016-02-20 08:55:20
    Copyright : © 2015 Twentieth Century Fox Film Corporation. All rights reserved.
    Cover : Yes
    Rating : None
    Title/Sort : Victor Frankenstein
    LongDescription : Новый взгляд на фантастическую историю Виктора Франкенштейна, на этот раз - с точки зрения его помощника Игоря.
    HDVideo : Yes
    AppleStoreCatalogID : 1052947436
    Vendor : Apple:vendor_id:2015-596985
    ContentRating : mpaa|PG-13|300|
    Video #1
    ID : 1
    Format : AVC
    Format/Info : Advanced Video Codec
    Format profile : Main@L3.1
    Format settings, CABAC : No
    Format settings, ReFrames : 2 frames
    Format settings, GOP : M=2, N=90
    Codec ID : avc1
    Codec ID/Info : Advanced Video Coding
    Duration : 1h 50mn
    Bit rate : 4 030 Kbps
    Width : 1 280 pixels
    Height : 528 pixels
    Display aspect ratio : 2.40:1
    Frame rate mode : Variable
    Frame rate : 23.976 (23976/1000) fps
    Minimum frame rate : 23.810 fps
    Maximum frame rate : 24.390 fps
    Color space : YUV
    Chroma subsampling : 4:2:0
    Bit depth : 8 bits
    Scan type : Progressive
    Bits/(Pixel*Frame) : 0.249
    Stream size : 3.11 GiB (82%)
    Title : Main Program
    Language : English
    Encoded date : UTC 2016-02-20 08:52:26
    Tagged date : UTC 2016-02-20 08:53:49
    Color range : Limited
    Color primaries : BT.709
    Transfer characteristics : BT.709
    Matrix coefficients : BT.709
    Menus : 11,12
    Video #2
    ID : 12
    Format : JPEG
    Codec ID : jpeg
    Duration : 1h 50mn
    Bit rate mode : Variable
    Bit rate : 1 090 bps
    Width : 640 pixels
    Height : 264 pixels
    Display aspect ratio : 2.40:1
    Frame rate mode : Variable
    Frame rate : 0.004 fps
    Minimum frame rate : 0.002 fps
    Maximum frame rate : 0.008 fps
    Color space : YUV
    Chroma subsampling : 4:2:0
    Bit depth : 8 bits
    Compression mode : Lossy
    Bits/(Pixel*Frame) : 1.613
    Stream size : 931 KiB (0%)
    Title : Chapter Images
    Language : English
    Default : No
    Encoded date : UTC 2016-02-20 08:53:54
    Tagged date : UTC 2016-02-20 08:53:55
    Menu For : 1
    Audio #1
    ID : 2
    Format : AAC
    Format/Info : Advanced Audio Codec
    Format profile : LC
    Codec ID : 40
    Duration : 1h 49mn
    Bit rate mode : Variable
    Bit rate : 157 Kbps
    Maximum bit rate : 224 Kbps
    Channel(s) : 2 channels
    Channel positions : Front: L R
    Sampling rate : 48.0 KHz
    Frame rate : 46.875 fps (1024 spf)
    Compression mode : Lossy
    Stream size : 123 MiB (3%)
    Title : Russian Stereo
    Language : Russian
    Default : Inherited From: 5
    Alternate group : 1
    Encoded date : UTC 2016-02-20 08:52:26
    Tagged date : UTC 2016-02-20 08:52:33
    Fallback From : 5
    Subtitles : 6,8
    Audio #2
    ID : 3
    Format : AAC
    Format/Info : Advanced Audio Codec
    Format profile : LC
    Codec ID : 40
    Duration : 1h 49mn
    Bit rate mode : Variable
    Bit rate : 156 Kbps
    Maximum bit rate : 239 Kbps
    Channel(s) : 2 channels
    Channel positions : Front: L R
    Sampling rate : 48.0 KHz
    Frame rate : 46.875 fps (1024 spf)
    Compression mode : Lossy
    Stream size : 123 MiB (3%)
    Title : English Stereo
    Language : English
    Default : No
    Alternate group : 1
    Encoded date : UTC 2016-02-20 08:52:26
    Tagged date : UTC 2016-02-20 08:52:33
    Audio #3
    ID : 4
    Format : AAC
    Format/Info : Advanced Audio Codec
    Format profile : LC
    Codec ID : 40
    Duration : 1h 49mn
    Bit rate mode : Variable
    Bit rate : 158 Kbps
    Maximum bit rate : 246 Kbps
    Channel(s) : 2 channels
    Channel positions : Front: L R
    Sampling rate : 48.0 KHz
    Frame rate : 46.875 fps (1024 spf)
    Compression mode : Lossy
    Stream size : 124 MiB (3%)
    Title : Ukrainian Stereo
    Language : Ukrainian
    Default : No
    Alternate group : 1
    Encoded date : UTC 2016-02-20 08:52:26
    Tagged date : UTC 2016-02-20 08:52:33
    Subtitles : 7,9
    Audio #4
    ID : 5
    Format : AC-3
    Format/Info : Audio Coding 3
    Mode extension : CM (complete main)
    Format settings, Endianness : Big
    Codec ID : ac-3
    Duration : 1h 49mn
    Bit rate mode : Constant
    Bit rate : 384 Kbps
    Channel(s) : 6 channels
    Channel positions : Front: L C R, Side: L R, LFE
    Sampling rate : 48.0 KHz
    Frame rate : 31.250 fps (1536 spf)
    Bit depth : 16 bits
    Compression mode : Lossy
    Stream size : 302 MiB (8%)
    Title : Russian DD 5.1
    Language : Russian
    Default : Yes
    Alternate group : 1
    Encoded date : UTC 2016-02-20 08:52:26
    Tagged date : UTC 2016-02-20 08:52:33
    Fallback To : 2
    Subtitles : 6,8
    Text #1
    ID : 6
    Format : Timed Text
    Muxing mode : sbtl
    Codec ID : tx3g
    Duration : 1h 49mn
    Bit rate mode : Variable
    Bit rate : 0 bps
    Stream size : 131 Bytes (0%)
    Title : Russian Forced
    Language : Russian
    Default : No
    Forced : Yes
    Alternate group : 2
    Encoded date : UTC 2016-02-20 08:52:26
    Tagged date : UTC 2016-02-20 08:52:33
    Subtitles For : 2,5
    Full Alternative : 8
    Text #2
    ID : 7
    Format : Timed Text
    Muxing mode : sbtl
    Codec ID : tx3g
    Duration : 1h 49mn
    Bit rate mode : Variable
    Bit rate : 1 bps
    Stream size : 1 001 Bytes (0%)
    Title : Ukrainian Forced
    Language : Ukrainian
    Default : No
    Forced : Yes
    Alternate group : 2
    Encoded date : UTC 2016-02-20 08:52:26
    Tagged date : UTC 2016-02-20 08:52:33
    Subtitles For : 4
    Full Alternative : 9
    Text #3
    ID : 8
    Format : Timed Text
    Muxing mode : sbtl
    Codec ID : tx3g
    Duration : 1h 49mn
    Bit rate mode : Variable
    Bit rate : 85 bps
    Stream size : 68.1 KiB (0%)
    Title : Russian Full
    Language : Russian
    Default : Yes
    Forced : No
    Alternate group : 2
    Encoded date : UTC 2016-02-20 08:52:26
    Tagged date : UTC 2016-02-20 08:52:33
    Subtitles For : 2,5
    Forced Alternative : 6
    Text #4
    ID : 9
    Format : Timed Text
    Muxing mode : sbtl
    Codec ID : tx3g
    Duration : 1h 49mn
    Bit rate mode : Variable
    Bit rate : 84 bps
    Stream size : 67.6 KiB (0%)
    Title : Ukrainian Full
    Language : Ukrainian
    Default : No
    Forced : No
    Alternate group : 2
    Encoded date : UTC 2016-02-20 08:52:26
    Tagged date : UTC 2016-02-20 08:52:33
    Subtitles For : 4
    Forced Alternative : 7
    Text #5
    ID : 10
    Format : Timed Text
    Muxing mode : sbtl
    Codec ID : tx3g
    Duration : 1h 43mn
    Bit rate mode : Variable
    Bit rate : 60 bps
    Stream size : 45.3 KiB (0%)
    Title : English Full
    Language : English
    Default : No
    Forced : No
    Alternate group : 2
    Encoded date : UTC 2016-02-20 08:52:26
    Tagged date : UTC 2016-02-20 08:52:33
    Menu #1
    00:00:00.000 : 1
    00:04:06.000 : 2
    00:08:05.000 : 3
    00:11:13.000 : 4
    00:15:18.000 : 5
    00:18:56.000 : 6
    00:22:24.000 : 7
    00:26:04.000 : 8
    00:28:56.000 : 9
    00:31:59.000 : 10
    00:35:58.000 : 11
    00:41:07.000 : 12
    00:46:13.000 : 13
    00:51:44.000 : 14
    00:56:38.000 : 15
    00:59:50.000 : 16
    01:02:32.000 : 17
    01:06:52.000 : 18
    01:11:19.000 : 19
    01:15:08.000 : 20
    01:18:04.000 : 21
    01:21:00.000 : 22
    01:25:14.000 : 23
    01:28:11.000 : 24
    01:33:28.000 : 25
    01:37:44.000 : 26
    01:41:25.000 : 27
    01:43:27.000 : 28
    Menu #2
    ID : 11
    Codec ID : text
    Duration : 1h 50mn
    Language : English
    Encoded date : UTC 2016-02-20 08:53:49
    Tagged date : UTC 2016-02-20 08:53:49
    Menu For : 1
    00:00:00.000 : 1
    00:04:06.000 : 2
    00:08:05.000 : 3
    00:11:13.000 : 4
    00:15:18.000 : 5
    00:18:56.000 : 6
    00:22:24.000 : 7
    00:26:04.000 : 8
    00:28:56.000 : 9
    00:31:59.000 : 10
    00:35:58.000 : 11
    00:41:07.000 : 12
    00:46:13.000 : 13
    00:51:44.000 : 14
    00:56:38.000 : 15
    00:59:50.000 : 16
    01:02:32.000 : 17
    01:06:52.000 : 18
    01:11:19.000 : 19
    01:15:08.000 : 20
    01:18:04.000 : 21
    01:21:00.000 : 22
    01:25:14.000 : 23
    01:28:11.000 : 24
    01:33:28.000 : 25
    01:37:44.000 : 26
    01:41:25.000 : 27
    01:43:27.000 : 28
    Bit rate mode : VBR

    Скриншоты

    -

    Релиз подготовлен для просмотра на Apple TV, iPad, iPhone, iPod Touch.
    Для просмотра данного релиза на компьютере с ОС Windows рекомендуется использовать VLC media player
    Скачать .torrent

    Скачать торрент-файл бесплатно и на максимальной скорости!

    Как скачивать? · Что такое торрент? · Рейтинг и ограничения

    !ВНИМАНИЕ!
    Сайт не распространяет и не хранит электронные версии произведений, а занимается лишь лишь предоставлением доступа к создаваемому пользователями каталогу ссылок на торрент-файлы, которые содержат только списки хеш-сумм, убедительная просьба с жалобами обращаться напрямую к пользователю. Файлы для обмена на трекере предоставлены пользователями сайта, и администрация не несёт ответственности за их содержание. Просьба не заливать файлы, защищенные авторскими правами, а также файлы нелегального содержания!


    _________________
    [Профиль] [ЛС]
    Показать сообщения:    
    Ответить на тему

    Текущее время: Сегодня, в 04:15

    Часовой пояс: GMT + 2



    Вы не можете начинать темы
    Вы не можете отвечать на сообщения
    Вы не можете редактировать свои сообщения
    Вы не можете удалять свои сообщения
    Вы не можете голосовать в опросах
    Вы не можете прикреплять файлы к сообщениям
    Вы не можете скачивать файлы