BitTorrentTracker PerecTracker.org
BitTorrentTracker PerecTracker.org
    
Регистрация  ·  Вход
 
 · 
Забыли пароль?

  • Мёд в голове / Honig im Kopf (Тиль Швайгер / Til Schweiger, Ларс Гмелинг / Lars Gmehling) [2014, Германия, драма, комедия, BDRip 720p] MVO (FocusStudio) + Original Ger + Sub Rus, Ger

    Ответить на тему
     
    Автор Сообщение

    Flirldrerve

    Создавать темы 19-Фев-2016 23:18

           

    [Цитировать]

    -Мёд в голове / Honig im Kopf-Год выпуска: 2014
    Страна: Германия
    Жанр: драма, комедия
    Продолжительность: 02:19:04
    Перевод: профессиональный многоголосый закадровый (FocusStudio)
    Cубтитры: русские (форсированные и полные), немецкие
    Оригинальная аудиодорожка: немецкий-Режиссеры: Тиль Швайгер / Til Schweiger, Ларс Гмелинг / Lars Gmehling
    В ролях: Эмма Швайгер, Дитер Халлерворден, Тиль Швайгер, Паскуале Алеарди, Клаудио Кайоло, Дэна Цебулла, Самуэль Финци, Лиана Форестьери, Жанетт Хайн, Клаудия Михельсен, Дар Салим, Тило Прюкнер, Валентин Швайгер, Фахри Огюн Ярдим-Описание: История 11-летней Тильды, которая просто обожает своего дедушку Амандуса. Когда тому диагностируют болезнь Альцгеймера, а родители, по ее мнению, хотят избавиться от него, сдав в дом престарелых, она берет ситуацию в свои руки и сбегает вместе с дедом в сказочную Венецию. Город выбран неслучайно. Ведь почти полвека назад Амандус сделал там предложение руки и сердца бабушке Тильды. Теперь внучка надеется, что оказавшись там, деду станет лучше, и он хоть что-нибудь вспомнит.-Релиз:
    Роли озвучивали: Александр Воронов, Наталья Казначеева, Иван Калинин, Алёна Созинова
    Перевод: Анастасия Кисиленко- -Качество: BDRip 720p
    Формат: MKV
    Видео: 1280x720p (2.35:1), 23,976 fps, MPEG-4 AVC ~8670 kbps avg, 0.508 bit/pixel
    Аудио Rus: AC3, 6 ch, 48 kHz, 640 kbps
    Аудио Ger: AC3, 6 ch, 48 kHz, 640 kbps-

    Скриншоты

    MediaInfo

    Format : Matroska
    Format version : Version 4 / Version 2
    File size : 9.67 GiB
    Duration : 2h 19mn
    Overall bit rate : 9 952 Kbps
    Movie name : Honig im Kopf @ FocusStudio
    Encoded date : UTC 2016-02-18 15:33:37
    Writing application : mkvmerge v8.5.2 ('Crosses') 64bit
    Writing library : libebml v1.3.3 + libmatroska v1.4.4
    Video
    ID : 1
    Format : AVC
    Format/Info : Advanced Video Codec
    Format profile : High@L4.1
    Format settings, CABAC : Yes
    Format settings, ReFrames : 12 frames
    Codec ID : V_MPEG4/ISO/AVC
    Duration : 2h 19mn
    Bit rate : 8 474 Kbps
    Width : 1 280 pixels
    Height : 544 pixels
    Display aspect ratio : 2.35:1
    Frame rate : 23.976 fps
    Color space : YUV
    Chroma subsampling : 4:2:0
    Bit depth : 8 bits
    Scan type : Progressive
    Bits/(Pixel*Frame) : 0.508
    Stream size : 8.23 GiB (85%)
    Writing library : x264 core 148 r2638+53 bb29004 t_mod_Custom [8-bit@all X86_64]
    Encoding settings : cabac=1 / ref=12 / deblock=1:-3:-3 / analyse=0x3:0x113 / me=umh / subme=10 / psy=1 / fade_compensate=0.00 / psy_rd=1.04:0.00 / mixed_ref=1 / me_range=32 / chroma_me=1 / trellis=2 / 8x8dct=1 / cqm=0 / deadzone=21,11 / fast_pskip=0 / chroma_qp_offset=-2 / threads=17 / lookahead_threads=2 / sliced_threads=0 / nr=0 / decimate=0 / interlaced=0 / bluray_compat=0 / constrained_intra=0 / fgo=0 / bframes=8 / b_pyramid=2 / b_adapt=2 / b_bias=0 / direct=3 / weightb=1 / open_gop=0 / weightp=2 / keyint=240 / keyint_min=23 / scenecut=40 / intra_refresh=0 / rc_lookahead=60 / rc=crf / mbtree=0 / crf=17.2000 / qcomp=0.75 / qpmin=0:0:0 / qpmax=69:69:69 / qpstep=4 / vbv_maxrate=62500 / vbv_bufsize=78125 / crf_max=0.0 / nal_hrd=none / filler=0 / ip_ratio=1.30 / pb_ratio=1.20 / aq=3:0.80 / aq-sensitivity=10.00 / aq-factor=1.00:1.00:1.00 / aq2=1:0.60 / aq2-sensitivity=15.00 / aq2-factor=1.00:1.00:1.00 / aq3=1:[0.60:0.60]:[0.60:0.60]:[0.60:0.60]:[0.60:0.60] / aq3-sensitivity=10.00 / aq3-factor=[1.00:1.00]:[1.00:1.00]:[1.00:1.00] / aq3-boundary=192:64:24
    Language : German
    Default : Yes
    Forced : No
    Audio #1
    ID : 2
    Format : AC-3
    Format/Info : Audio Coding 3
    Mode extension : CM (complete main)
    Format settings, Endianness : Big
    Codec ID : A_AC3
    Duration : 2h 19mn
    Bit rate mode : Constant
    Bit rate : 640 Kbps
    Channel(s) : 6 channels
    Channel positions : Front: L C R, Side: L R, LFE
    Sampling rate : 48.0 KHz
    Bit depth : 16 bits
    Compression mode : Lossy
    Stream size : 637 MiB (6%)
    Title : MVO FocusStudio
    Language : Russian
    Default : Yes
    Forced : No
    Audio #2
    ID : 3
    Format : AC-3
    Format/Info : Audio Coding 3
    Mode extension : CM (complete main)
    Format settings, Endianness : Big
    Codec ID : A_AC3
    Duration : 2h 19mn
    Bit rate mode : Constant
    Bit rate : 640 Kbps
    Channel(s) : 6 channels
    Channel positions : Front: L C R, Side: L R, LFE
    Sampling rate : 48.0 KHz
    Bit depth : 16 bits
    Compression mode : Lossy
    Stream size : 637 MiB (6%)
    Language : German
    Default : No
    Forced : No
    Text #1
    ID : 4
    Format : ASS
    Codec ID : S_TEXT/ASS
    Codec ID/Info : Advanced Sub Station Alpha
    Compression mode : Lossless
    Title : Forced
    Language : Russian
    Default : Yes
    Forced : No
    Text #2
    ID : 5
    Format : UTF-8
    Codec ID : S_TEXT/UTF8
    Codec ID/Info : UTF-8 Plain Text
    Title : Full
    Language : Russian
    Default : No
    Forced : No
    Text #3
    ID : 6
    Format : UTF-8
    Codec ID : S_TEXT/UTF8
    Codec ID/Info : UTF-8 Plain Text
    Language : German
    Default : No
    Forced : No
    Menu
    00:00:00.000 : en:00:00:00.000
    00:09:46.252 : en:00:09:46.252
    00:22:47.741 : en:00:22:47.741
    00:33:07.694 : en:00:33:07.694
    00:44:47.768 : en:00:44:47.768
    01:00:13.360 : en:01:00:13.360
    01:09:56.234 : en:01:09:56.234
    01:22:16.807 : en:01:22:16.807
    01:33:15.548 : en:01:33:15.548
    01:45:02.546 : en:01:45:02.546
    01:55:08.610 : en:01:55:08.610
    02:08:33.497 : en:02:08:33.497
    Скачать .torrent

    Скачать торрент-файл бесплатно и на максимальной скорости!

    Как скачивать? · Что такое торрент? · Рейтинг и ограничения

    !ВНИМАНИЕ!
    Сайт не распространяет и не хранит электронные версии произведений, а занимается лишь лишь предоставлением доступа к создаваемому пользователями каталогу ссылок на торрент-файлы, которые содержат только списки хеш-сумм, убедительная просьба с жалобами обращаться напрямую к пользователю. Файлы для обмена на трекере предоставлены пользователями сайта, и администрация не несёт ответственности за их содержание. Просьба не заливать файлы, защищенные авторскими правами, а также файлы нелегального содержания!


    _________________
    [Профиль] [ЛС]
    Показать сообщения:    
    Ответить на тему

    Текущее время: Сегодня, в 10:46

    Часовой пояс: GMT + 2



    Вы не можете начинать темы
    Вы не можете отвечать на сообщения
    Вы не можете редактировать свои сообщения
    Вы не можете удалять свои сообщения
    Вы не можете голосовать в опросах
    Вы не можете прикреплять файлы к сообщениям
    Вы не можете скачивать файлы