BitTorrentTracker PerecTracker.org
BitTorrentTracker PerecTracker.org
    
Регистрация  ·  Вход
 
 · 
Забыли пароль?

  • Ночь в старой Мексике / A Night in Old Mexico (Эмилио Арагон / Emilio Aragón) [2013, Испания, США, драма, приключения, BDRip] AVO (Юрий Живов)

    Ответить на тему
     
    Автор Сообщение

    rechyn

    Создавать темы 19-Фев-2016 23:18

           

    [Цитировать]

    Ночь в старой Мексике / A Night in Old Mexico
    Страна: Испания, США
    Студия: Flywheel & Shyster, Globomedia Cine, ICAA, Maxmedia LLC, Prospect Park, Quentin Quayle Pictures, RTVE, Telefonica Studios, Viva Texas, VT Films
    Жанр: Драма, приключения
    Год выпуска: 2013
    Продолжительность: 01:44:01
    Перевод 1: Авторский (одноголосый закадровый) Юрий Живов
    Оригинальная аудиодорожка: нет
    Режиссер: Эмилио Арагон / Emilio Aragón
    В ролях: Роберт Дювалл, Джереми Ирвин, Энджи Сепеда, Луис Тосар, Хоакин Косио, Хавьер Гутьеррес, Рене Ри, Джим Пэррак, Джеймс Хеберт, Майкл Рэй Эскамиллья
    Описание: Вынужденный отказаться от своей земли и от своего дома в Техасе, молодой в душе старик решает оттянуться в последний раз. Он берет свой Кадиллак и отправляется в путь, в котором ему составляет компанию его внук, чтобы больше узнать о своем деде. Дед и внук осуществляют путешествие через свои мечты, и останавливаются в диком городке в Мексике, где к ним присоединяется симпатичная девушка по имени Петти, которая тоже надеется на приключения. И они находят эти приключения, ввязываясь в непростую ситуацию с тремя бандитами. Оружие, веселье, девушки и старая Мексика, вот что нужно для хорошего отдыха деду с внуком.
    Дополнительная информация:
    Автор релиза - ylnian
    Заказ и выкуп голоса Юрия Живова (перевод - февраль 2016 г.) - ylnian
    За наложение чистого голоса и сборку дороги спасибо rammzez
    Источник для рипа - A.Night.in.Old.Mexico.2013.1080p.BluRay.AVC.DD5.1-FGT


    Сэмпл: https://yadi.sk/i/XXCwDD3tp8XFM
    Качество видео: BDRip
    Формат видео: AVI
    Видео: XviD, 720x304 (2,35:1), 23.976 fps, 1555 kbps, 0.296 bit/pixel
    Аудио: Русский AC3, 48000 Гц, 6ch, 448 kbps - AVO

    MediaInfo

    Общее
    Полное имя : E:\A.Night.in.Old.Mexico.2013.BDRip-ylnian.avi
    Формат : AVI
    Формат/Информация : Audio Video Interleave
    Размер файла : 1,46 Гбайт
    Продолжительность : 1 ч. 44 м.
    Общий поток : 2012 Кбит/сек
    Программа кодирования : VirtualDubMod 1.5.10.2 (build 2540/release)
    Библиотека кодирования : VirtualDubMod build 2540/release
    Видео
    Идентификатор : 0
    Формат : MPEG-4 Visual
    Профиль формата : Advanced Simple@L5
    Параметр BVOP формата : 1
    Параметр QPel формата : Нет
    Параметр GMC формата : Без точки перехода
    Параметр матрицы формата : Default (H.263)
    Идентификатор кодека : XVID
    Идентификатор кодека/Подсказка : XviD
    Продолжительность : 1 ч. 44 м.
    Битрейт : 1555 Кбит/сек
    Ширина : 720 пикселей
    Высота : 304 пикселя
    Соотношение сторон : 2,35:1
    Частота кадров : 23,976 (24000/1001) кадра/сек
    Цветовое пространство : YUV
    Субдискретизация насыщенности : 4:2:0
    Битовая глубина : 8 бит
    Тип развёртки : Прогрессивная
    Метод сжатия : С потерями
    Бит/(Пиксели*Кадры) : 0.296
    Размер потока : 1,13 Гбайт (77%)
    Библиотека кодирования : XviD 67
    Аудио
    Идентификатор : 1
    Формат : AC-3
    Формат/Информация : Audio Coding 3
    Расширение режима : CM (complete main)
    Параметр Endianness формата : Big
    Идентификатор кодека : 2000
    Продолжительность : 1 ч. 44 м.
    Вид битрейта : Постоянный
    Битрейт : 448 Кбит/сек
    Каналы : 6 каналов
    Расположение каналов : Front: L C R, Side: L R, LFE
    Частота : 48,0 КГц
    Частота кадров : 31,250 кадров/сек (1536 spf)
    Метод сжатия : С потерями
    Размер потока : 333 Мбайт (22%)
    Выравнивание : Разделение по промежуткам
    Продолжительность промежутка : 42 мс. (1,00 видеокадр)
    Время предзагрузки промежутка : 500 мс.

    Скриншот c названием фильма

    Скриншоты

    Скачать .torrent

    Скачать торрент-файл бесплатно и на максимальной скорости!

    Как скачивать? · Что такое торрент? · Рейтинг и ограничения

    !ВНИМАНИЕ!
    Сайт не распространяет и не хранит электронные версии произведений, а занимается лишь лишь предоставлением доступа к создаваемому пользователями каталогу ссылок на торрент-файлы, которые содержат только списки хеш-сумм, убедительная просьба с жалобами обращаться напрямую к пользователю. Файлы для обмена на трекере предоставлены пользователями сайта, и администрация не несёт ответственности за их содержание. Просьба не заливать файлы, защищенные авторскими правами, а также файлы нелегального содержания!


    _________________
    [Профиль] [ЛС]
    Показать сообщения:    
    Ответить на тему

    Текущее время: Сегодня, в 00:35

    Часовой пояс: GMT + 2



    Вы не можете начинать темы
    Вы не можете отвечать на сообщения
    Вы не можете редактировать свои сообщения
    Вы не можете удалять свои сообщения
    Вы не можете голосовать в опросах
    Вы не можете прикреплять файлы к сообщениям
    Вы не можете скачивать файлы