BitTorrentTracker PerecTracker.org
BitTorrentTracker PerecTracker.org
    
Регистрация  ·  Вход
 
 · 
Забыли пароль?

  • Безграничный Бэтмен: Хаос / Batman Unlimited: Monster Mayhem (Батч Лукич / Butch Lukic) [2015, США, мультфильм, фантастика, боевик, приключения, BDRip-AVC] DVO + Original (Eng) + Sub (eng)

    Ответить на тему
     
    Автор Сообщение

    rechyn

    Создавать темы 19-Фев-2016 02:50

           

    [Цитировать]


    Безграничный Бэтмен: Хаос
    Batman Unlimited: Monster Mayhem
    -Год выпуска: 2015
    Страна: США
    Жанр: мультфильм, фантастика, боевик, приключения
    Продолжительность: 01:20:13
    Перевод: Профессиональный (Двухголосый закадровый)
    русские субтитры: нет-Режиссёр: Батч Лукич : Butch Lukic-Роли озвучивали: Трой Бэйкер, Дженелл Кокс, Брайан Т. Делани, Крис Диамантополос, Нил Дункан, Ричард Эпкар, Ноэль Фишер, Уилл Фридел, Юрий Ловенталь, Дэйв Митчелл-ОписаниеКоманда из Бэтмена, Найтвинга, Киборга и Зеленой Стрелы противостоит Соломону Гранди, Глиноликому, Страшиле и Серебряной Банши. Возглавит шайку негодяев, конечно же, Джокер.- релиз: -Качество: BDRip-AVC BDRemux 1080p
    Формат: MKV
    Видео кодек: AVC
    Аудио кодек: AC3
    Видео: AVC 2330 Kbps 1152 x 648 (1.778) 23.976 fps
    Аудио #1: [RUS] 48 kHz, AC3 Dolby Digital, 2/0 (L,R) ch, ~192 kbps
    Аудио #2: [ENG] AC-3 448 Kbps 6 channels, 48.0 KHz
    субтитры: английские
    навигация по главам: 10 глав (не именные)

    Скриншоты



    MediaInfo | Log

    Log

    x264 [info]: frame I:1048 Avg QP: 9.75 size:117346
    x264 [info]: frame P:33537 Avg QP:12.19 size: 26419
    x264 [info]: frame B:80791 Avg QP:13.62 size: 5297
    x264 [info]: consecutive B-frames: 6.9% 9.7% 9.9% 40.0% 9.4% 7.7% 2.3% 3.7% 1.2% 3.6% 1.3% 2.1% 2.2%
    x264 [info]: mb I I16..4: 20.1% 40.2% 39.7%
    x264 [info]: mb P I16..4: 3.0% 7.6% 4.0% P16..4: 22.2% 20.0% 10.2% 3.3% 0.7% skip:29.1%
    x264 [info]: mb B I16..4: 0.4% 0.8% 0.3% B16..8: 20.9% 9.8% 2.0% direct: 1.8% skip:64.1% L0:46.1% L1:47.6% BI: 6.3%
    x264 [info]: 8x8 transform intra:50.5% inter:35.7%
    x264 [info]: direct mvs spatial:99.9% temporal:0.1%
    x264 [info]: coded y,uvDC,uvAC intra: 62.4% 77.0% 69.4% inter: 8.1% 10.7% 7.6%
    x264 [info]: i16 v,h,dc,p: 52% 20% 11% 17%
    x264 [info]: i8 v,h,dc,ddl,ddr,vr,hd,vl,hu: 13% 16% 21% 7% 8% 7% 9% 8% 12%
    x264 [info]: i4 v,h,dc,ddl,ddr,vr,hd,vl,hu: 18% 18% 17% 7% 9% 7% 8% 6% 9%
    x264 [info]: i8c dc,h,v,p: 40% 32% 18% 11%
    x264 [info]: Weighted P-Frames: Y:1.9% UV:1.6%
    x264 [info]: ref P L0: 60.9% 3.0% 13.8% 5.9% 3.9% 3.3% 2.6% 1.8% 1.5% 1.5% 1.3% 0.4% 0.0%
    x264 [info]: ref B L0: 74.7% 11.0% 5.3% 2.6% 1.9% 1.5% 1.3% 0.9% 0.6% 0.3%
    x264 [info]: ref B L1: 93.1% 6.9%
    x264 [info]: kb/s:2388.91
    x264 [total]: encoded 115376 frames, 9.87 fps, 2388.92 kb/s, duration 3:14:54.13
    Format : Matroska
    Format version : Version 4 / Version 2
    File size : 1.70 GiB
    Duration : 1h 20mn
    Overall bit rate : 3 030 Kbps
    Encoded date : UTC 2016-02-18 23:01:25
    Writing application : mkvmerge v6.7.0 ('Back to the Ground') 32bit built on Jan 8 2014 15:03:17
    Writing library : libebml v1.3.0 + libmatroska v1.4.1
    Video
    ID : 1
    Format : AVC
    Format/Info : Advanced Video Codec
    Format profile : High@L4.1
    Format settings, CABAC : Yes
    Format settings, ReFrames : 11 frames
    Codec ID : V_MPEG4/ISO/AVC
    Duration : 1h 20mn
    Bit rate : 2 330 Kbps
    Width : 1 152 pixels
    Height : 648 pixels
    Display aspect ratio : 16:9
    Frame rate mode : Constant
    Frame rate : 23.976 fps
    Color space : YUV
    Chroma subsampling : 4:2:0
    Bit depth : 8 bits
    Scan type : Progressive
    Bits/(Pixel*Frame) : 0.130
    Stream size : 1.31 GiB (77%)
    Title : Batman Unlimited: Monster Mayhem (2015) [perectracker.org]
    Writing library : x264 core 148 r2638kMod 7599210
    Encoding settings : cabac=1 / ref=11 / deblock=1:-2:-2 / analyse=0x3:0x133 / me=umh / subme=11 / psy=1 / fade_compensate=0.00 / psy_rd=1.00:0.05 / mixed_ref=1 / me_range=48 / chroma_me=1 / trellis=2 / 8x8dct=1 / cqm=0 / deadzone=21,11 / fast_pskip=0 / chroma_qp_offset=-3 / threads=12 / lookahead_threads=3 / sliced_threads=0 / nr=0 / decimate=1 / interlaced=0 / bluray_compat=0 / constrained_intra=0 / fgo=0 / bframes=12 / b_pyramid=2 / b_adapt=2 / b_bias=0 / direct=3 / weightb=1 / open_gop=0 / weightp=2 / keyint=250 / keyint_min=23 / scenecut=40 / intra_refresh=0 / rc_lookahead=60 / rc=crf / mbtree=0 / crf=16.9000 / qcomp=0.60 / qpmin=0 / qpmax=69 / qpstep=4 / vbv_maxrate=50000 / vbv_bufsize=62500 / crf_max=0.0 / nal_hrd=none / filler=0 / ip_ratio=1.40 / pb_ratio=1.30 / aq=3:0.90
    Language : English
    Default : Yes
    Forced : No
    Audio #1
    ID : 2
    Format : AC-3
    Format/Info : Audio Coding 3
    Mode extension : CM (complete main)
    Format settings, Endianness : Big
    Codec ID : A_AC3
    Duration : 1h 20mn
    Bit rate mode : Constant
    Bit rate : 192 Kbps
    Channel(s) : 2 channels
    Channel positions : Front: L R
    Sampling rate : 48.0 KHz
    Compression mode : Lossy
    Stream size : 110 MiB (6%)
    Title : MVO
    Language : Russian
    Default : Yes
    Forced : No
    Audio #2
    ID : 3
    Format : AC-3
    Format/Info : Audio Coding 3
    Mode extension : CM (complete main)
    Format settings, Endianness : Big
    Codec ID : A_AC3
    Duration : 1h 20mn
    Bit rate mode : Constant
    Bit rate : 448 Kbps
    Channel(s) : 6 channels
    Channel positions : Front: L C R, Side: L R, LFE
    Sampling rate : 48.0 KHz
    Compression mode : Lossy
    Stream size : 257 MiB (15%)
    Title : Original
    Language : English
    Default : No
    Forced : No
    Text
    ID : 4
    Format : UTF-8
    Codec ID : S_TEXT/UTF8
    Codec ID/Info : UTF-8 Plain Text
    Title : SDH
    Language : English
    Default : No
    Forced : No
    Menu
    00:00:00.000 : en:00:00:00.000
    00:07:35.872 : en:00:07:35.872
    00:12:23.701 : en:00:12:23.701
    00:21:30.247 : en:00:21:30.247
    00:33:22.292 : en:00:33:22.292
    00:40:40.647 : en:00:40:40.647
    00:49:40.352 : en:00:49:40.352
    01:00:00.889 : en:01:00:00.889
    01:09:33.544 : en:01:09:33.544
    01:17:37.319 : en:01:17:37.319
    Скачать .torrent

    Скачать торрент-файл бесплатно и на максимальной скорости!

    Как скачивать? · Что такое торрент? · Рейтинг и ограничения

    !ВНИМАНИЕ!
    Сайт не распространяет и не хранит электронные версии произведений, а занимается лишь лишь предоставлением доступа к создаваемому пользователями каталогу ссылок на торрент-файлы, которые содержат только списки хеш-сумм, убедительная просьба с жалобами обращаться напрямую к пользователю. Файлы для обмена на трекере предоставлены пользователями сайта, и администрация не несёт ответственности за их содержание. Просьба не заливать файлы, защищенные авторскими правами, а также файлы нелегального содержания!


    _________________
    [Профиль] [ЛС]
    Показать сообщения:    
    Ответить на тему

    Текущее время: Сегодня, в 11:45

    Часовой пояс: GMT + 2



    Вы не можете начинать темы
    Вы не можете отвечать на сообщения
    Вы не можете редактировать свои сообщения
    Вы не можете удалять свои сообщения
    Вы не можете голосовать в опросах
    Вы не можете прикреплять файлы к сообщениям
    Вы не можете скачивать файлы