BitTorrentTracker PerecTracker.org
BitTorrentTracker PerecTracker.org
    
Регистрация  ·  Вход
 
 · 
Забыли пароль?

  • Мёд в голове / Honig im Kopf (Тиль Швайгер / Til Schweiger, Ларс Гмелинг / Lars Gmehling) [2014, Германия, Драма, Комедия, BDRip] MVO (FocusStudio) + Ger + Subs

    Ответить на тему
     
    Автор Сообщение

    rechyn

    Создавать темы 19-Фев-2016 02:50

           

    [Цитировать]

    -Мёд в голове / Honig im Kopf-Год выпуска: 2014
    Страна: Германия
    Жанр: драма, комедия
    Продолжительность: 02:19:04
    Перевод: профессиональный многоголосый закадровый (FocusStudio)
    Cубтитры: русские (форсированные и полные)-Режиссеры: Тиль Швайгер / Til Schweiger, Ларс Гмелинг / Lars Gmehling
    В ролях: Эмма Швайгер, Дитер Халлерворден, Тиль Швайгер, Паскуале Алеарди, Клаудио Кайоло, Дэна Цебулла, Самуэль Финци, Лиана Форестьери, Жанетт Хайн, Клаудия Михельсен, Дар Салим, Тило Прюкнер, Валентин Швайгер, Фахри Огюн Ярдим-Описание: История 11-летней Тильды, которая просто обожает своего дедушку Амандуса. Когда тому диагностируют болезнь Альцгеймера, а родители, по ее мнению, хотят избавиться от него, сдав в дом престарелых, она берет ситуацию в свои руки и сбегает вместе с дедом в сказочную Венецию. Город выбран неслучайно. Ведь почти полвека назад Амандус сделал там предложение руки и сердца бабушке Тильды. Теперь внучка надеется, что оказавшись там, деду станет лучше, и он хоть что-нибудь вспомнит.-Релиз:
    Роли озвучивали: Александр Воронов, Наталья Казначеева, Иван Калинин, Алёна Созинова
    Перевод: Анастасия Кисиленко- -Качество: BDRip (исх. BDRemux 1080p)
    Формат: AVI
    Видео: 720x304 (2.37:1), 23.976 fps, XviD ~1480 kbps avg, 0.28 bit/pixel
    Аудио Rus: AC3, 6 ch, 48 kHz, 384 kbps
    Аудио Ger: AC3, 6 ch, 48 kHz, 384 kbps-

    Скриншоты

    MediaInfo

    Format : AVI
    Format/Info : Audio Video Interleave
    Format profile : OpenDML
    File size : 2.19 GiB
    Duration : 2h 19mn
    Overall bit rate : 2 255 Kbps
    Writing application : VirtualDubMod 1.5.10.3 | www.virtualdub-fr.org || (build 2550/release)
    Writing library : VirtualDubMod build 2550/release
    Video
    ID : 0
    Format : MPEG-4 Visual
    Format profile : Advanced Simple@L5
    Format settings, BVOP : 1
    Format settings, QPel : No
    Format settings, GMC : No warppoints
    Format settings, Matrix : Default (MPEG)
    Codec ID : XVID
    Codec ID/Hint : XviD
    Duration : 2h 19mn
    Bit rate : 1 470 Kbps
    Width : 720 pixels
    Height : 304 pixels
    Display aspect ratio : 2.35:1
    Frame rate : 23.976 fps
    Color space : YUV
    Chroma subsampling : 4:2:0
    Bit depth : 8 bits
    Scan type : Progressive
    Compression mode : Lossy
    Bits/(Pixel*Frame) : 0.280
    Stream size : 1.43 GiB (65%)
    Writing library : XviD 73
    Audio #1
    ID : 1
    Format : AC-3
    Format/Info : Audio Coding 3
    Mode extension : CM (complete main)
    Format settings, Endianness : Big
    Codec ID : 2000
    Duration : 2h 19mn
    Bit rate mode : Constant
    Bit rate : 384 Kbps
    Channel(s) : 6 channels
    Channel positions : Front: L C R, Side: L R, LFE
    Sampling rate : 48.0 KHz
    Compression mode : Lossy
    Stream size : 382 MiB (17%)
    Alignment : Split accross interleaves
    Interleave, duration : 42 ms (1.00 video frame)
    Interleave, preload duration : 500 ms
    Title : Russian (FocusStudio)
    Audio #2
    ID : 2
    Format : AC-3
    Format/Info : Audio Coding 3
    Mode extension : CM (complete main)
    Format settings, Endianness : Big
    Codec ID : 2000
    Duration : 2h 19mn
    Bit rate mode : Constant
    Bit rate : 384 Kbps
    Channel(s) : 6 channels
    Channel positions : Front: L C R, Side: L R, LFE
    Sampling rate : 48.0 KHz
    Compression mode : Lossy
    Stream size : 382 MiB (17%)
    Alignment : Split accross interleaves
    Interleave, duration : 42 ms (1.00 video frame)
    Interleave, preload duration : 500 ms
    Title : German
    Скачать .torrent

    Скачать торрент-файл бесплатно и на максимальной скорости!

    Как скачивать? · Что такое торрент? · Рейтинг и ограничения

    !ВНИМАНИЕ!
    Сайт не распространяет и не хранит электронные версии произведений, а занимается лишь лишь предоставлением доступа к создаваемому пользователями каталогу ссылок на торрент-файлы, которые содержат только списки хеш-сумм, убедительная просьба с жалобами обращаться напрямую к пользователю. Файлы для обмена на трекере предоставлены пользователями сайта, и администрация не несёт ответственности за их содержание. Просьба не заливать файлы, защищенные авторскими правами, а также файлы нелегального содержания!


    _________________
    [Профиль] [ЛС]
    Показать сообщения:    
    Ответить на тему

    Текущее время: Сегодня, в 11:36

    Часовой пояс: GMT + 2



    Вы не можете начинать темы
    Вы не можете отвечать на сообщения
    Вы не можете редактировать свои сообщения
    Вы не можете удалять свои сообщения
    Вы не можете голосовать в опросах
    Вы не можете прикреплять файлы к сообщениям
    Вы не можете скачивать файлы