BitTorrentTracker PerecTracker.org
BitTorrentTracker PerecTracker.org
    
Регистрация  ·  Вход
 
 · 
Забыли пароль?

  • Ордер на смерть / Death warrant (Деран Сарафян / Deran Sarafian) [1990, Канада, США, боевик, драма, криминал, детектив, BDRemux 1080p] Dub (хлопушка) + DVO (НТВ) + MVO (СТС) + AVO (Гаврилов) + Sub (Rus, Eng) + Original Eng

    Ответить на тему
     
    Автор Сообщение

    Flirldrerve

    Создавать темы 19-Фев-2016 02:50

           

    [Цитировать]

    Ордер на смерть / Death warrant
    Страна: Канада, США
    Студия: Pathe Pictures International
    Жанр: боевик, драма, криминал, детектив
    Год выпуска: 1990
    Продолжительность: 01:29:03
    Перевод: Профессиональный (дублированный) хлопушка
    Перевод 2: Профессиональный (двухголосый закадровый) НТВ
    Перевод 3: Профессиональный (многоголосый закадровый) СТС
    Перевод 4: Авторский (одноголосый закадровый) Гаврилов
    Cубтитры: Русские, английские
    Оригинальная аудиодорожка: английский
    Режиссер: Деран Сарафян / Deran Sarafian
    В ролях: Жан-Клод Ван Дамм, Роберт Гийом, Синтия Гибб, Джордж Дикерсон, Арт ЛаФлёр, Патрик Килпатрик, Джошуа Джон Миллер, Хэнк Стоун, Конрад Данн, Джек Бэннон, Абдул Салаам Эль Раззас, Армин Шимерман, Джон Лэнц, Ганс Хоус, Гарри Уотерс мл., Дороти Деллс, Пауло Тока, Карлис Бурк, Камель Крифа, Аль Леонг, Дэвид Эрскин, Гэри Сервантес, С.Э. Граймс, Ник Гамбэлла, Роберт Уинли, Дэнни Уизелис, Рик Аллен, Джордж Мэк, Джеймс Харди, Джон Де Белло, Джерри Блэк, Марк ДиСалле, Ричард Л. Дюран, Томас Розалес мл., Ларри Хэнкин, Ли Пэйн, Джек Рубио
    Описание: Ван Дамм в роли офицера Луиса Берка, «нечистого на руку» полицейского детектива, отправляется под видом осуждённого в тюрьму «Харрисон», чтобы раскрыть серию убийств заключённых. В стенах тюрьмы он сталкивается с жестокостью сокамерников, с коррумпированными охранниками, со смертью и предательством всех мастей.Когда Берк узнает шокирующую тайну тюрьмы, он должен совершить дерзкий побег — его последний шанс вырваться из лап сотен осуждённых головорезов, возглавляемых его кровным врагом.

    Тип релиза: BDRemux 1080p
    Контейнер: MKV
    Видео: MPEG-4 AVC, 29992 Кбит/с, 1920x1080, 23.976 кадр/с
    Аудио: Русский 48 kHz, AC3 Dolby Digital, 2/0 (L,R) ch, ~224 kbps - (хлопушка)
    Аудио 2: Русский 48 kHz, AC3 Dolby Digital, 2/0 (L,R) ch, ~224 kbps - (НТВ)
    Аудио 3: Русский 48 kHz, AC3 Dolby Digital, 2/0 (L,R) ch, ~192 kbps - (СТС)
    Аудио 4: Русский DTS-HD Master Audio / 2107 kbps / 2.0 / 48 kHz / 2107 kbps / 24-bit (DTS Core: 2.0 / 48 kHz / 1509 kbps / 24-bit) - А.Гаврилов
    Аудио 5: Английский DTS-HD Master Audio / 2079 kbps / 2.0 / 48 kHz / 2079 kbps / 24-bit (DTS Core: 2.0 / 48 kHz / 1509 kbps / 24-bit)
    Аудио 6: Украинский Dolby Digital Audio / Ukrainian / 224 kbps / 2.0 / 48 kHz / 224 kbps / DN -4dB (1+1)

    MediaInfo

    Общее
    Уникальный идентификатор : 230668635793107973766204655051769051451 (0xAD8929CD67D24C669794B9CF2486F93B)
    Полное имя : D:\РЕМУКС!!!!!\Ордер на смерть.BDRemux..mkv
    Формат : Matroska
    Версия формата : Version 4 / Version 2
    Размер файла : 21,7 Гбайт
    Продолжительность : 1 ч. 29 м.
    Режим общего битрейта : Переменный
    Общий поток : 35,0 Мбит/сек
    Название фильма : Ордер на смерть.BDRemux.thx:SPOMOPS.
    Дата кодирования : UTC 2016-02-05 05:52:54
    Программа кодирования : mkvmerge v6.1.0 ('Old Devil') built on Mar 4 2013 09:10:42
    Библиотека кодирования : libebml v1.3.0 + libmatroska v1.4.0
    Видео
    Идентификатор : 1
    Формат : AVC
    Формат/Информация : Advanced Video Codec
    Профиль формата : High@L4.1
    Параметр CABAC формата : Да
    Параметр ReFrames формата : 4 кадра
    Идентификатор кодека : V_MPEG4/ISO/AVC
    Продолжительность : 1 ч. 29 м.
    Вид битрейта : Переменный
    Максимальный битрейт : 38,0 Мбит/сек
    Ширина : 1920 пикселей
    Высота : 1080 пикселей
    Соотношение сторон : 16:9
    Режим частоты кадров : Постоянный
    Частота кадров : 23,976 кадра/сек
    Цветовое пространство : YUV
    Субдискретизация насыщенности : 4:2:0
    Битовая глубина : 8 бит
    Тип развёртки : Прогрессивная
    Default : Да
    Forced : Нет
    Аудио #1
    Идентификатор : 2
    Формат : AC-3
    Формат/Информация : Audio Coding 3
    Расширение режима : CM (complete main)
    Параметр Endianness формата : Big
    Идентификатор кодека : A_AC3
    Продолжительность : 1 ч. 29 м.
    Вид битрейта : Постоянный
    Битрейт : 224 Кбит/сек
    Каналы : 2 канала
    Расположение каналов : Front: L R
    Частота : 48,0 КГц
    Битовая глубина : 16 бит
    Метод сжатия : С потерями
    Задержка видео : -194 мс.
    Размер потока : 143 Мбайт (1%)
    Заголовок : Русский АСЗ 224 kbps - Дубляж Хлопушка
    Язык : Russian
    Default : Да
    Forced : Нет
    Аудио #2
    Идентификатор : 3
    Формат : AC-3
    Формат/Информация : Audio Coding 3
    Профиль формата : Dolby Digital
    Расширение режима : CM (complete main)
    Параметр Endianness формата : Big
    Идентификатор кодека : A_AC3
    Продолжительность : 1 ч. 29 м.
    Вид битрейта : Постоянный
    Битрейт : 224 Кбит/сек
    Каналы : 2 канала
    Расположение каналов : Front: L R
    Частота : 48,0 КГц
    Битовая глубина : 16 бит
    Метод сжатия : С потерями
    Размер потока : 143 Мбайт (1%)
    Заголовок : Русский АСЗ 224 kbps - ПМ НТВ
    Язык : Russian
    Default : Нет
    Forced : Нет
    Аудио #3
    Идентификатор : 4
    Формат : AC-3
    Формат/Информация : Audio Coding 3
    Расширение режима : CM (complete main)
    Параметр Endianness формата : Big
    Идентификатор кодека : A_AC3
    Продолжительность : 1 ч. 29 м.
    Вид битрейта : Постоянный
    Битрейт : 192 Кбит/сек
    Каналы : 2 канала
    Расположение каналов : Front: L R
    Частота : 48,0 КГц
    Битовая глубина : 16 бит
    Метод сжатия : С потерями
    Задержка видео : -194 мс.
    Размер потока : 122 Мбайт (1%)
    Заголовок : Русский АСЗ 192 kbps - ПМ СТС
    Язык : Russian
    Default : Нет
    Forced : Нет
    Аудио #4
    Идентификатор : 5
    Формат : DTS
    Формат/Информация : Digital Theater Systems
    Профиль формата : MA / Core
    Режим : 16
    Параметр Endianness формата : Big
    Идентификатор кодека : A_DTS
    Продолжительность : 1 ч. 29 м.
    Вид битрейта : Переменный
    Битрейт : Неизвестно / 1509 Кбит/сек
    Каналы : 2 канала
    Расположение каналов : Front: L R
    Частота : 48,0 КГц
    Битовая глубина : 24 бит
    Метод сжатия : Без потерь / Lossy
    Заголовок : Русский DTS-HD MA 2107 kbps - А.Гаврилов
    Язык : Russian
    Default : Нет
    Forced : Нет
    Аудио #5
    Идентификатор : 6
    Формат : DTS
    Формат/Информация : Digital Theater Systems
    Профиль формата : MA / Core
    Режим : 16
    Параметр Endianness формата : Big
    Идентификатор кодека : A_DTS
    Продолжительность : 1 ч. 29 м.
    Вид битрейта : Переменный
    Битрейт : Неизвестно / 1509 Кбит/сек
    Каналы : 2 канала
    Расположение каналов : Front: L R
    Частота : 48,0 КГц
    Битовая глубина : 24 бит
    Метод сжатия : Без потерь / Lossy
    Заголовок : Английский DTS-HD MA 2079 kbps - Оригинал
    Язык : English
    Default : Нет
    Forced : Нет
    Аудио #6
    Идентификатор : 7
    Формат : AC-3
    Формат/Информация : Audio Coding 3
    Расширение режима : CM (complete main)
    Параметр Endianness формата : Big
    Идентификатор кодека : A_AC3
    Продолжительность : 1 ч. 29 м.
    Вид битрейта : Постоянный
    Битрейт : 224 Кбит/сек
    Каналы : 2 канала
    Расположение каналов : Front: L R
    Частота : 48,0 КГц
    Битовая глубина : 16 бит
    Метод сжатия : С потерями
    Размер потока : 143 Мбайт (1%)
    Заголовок : Украинский АСЗ 224 kbps - 1+1
    Язык : Ukrainian
    Default : Нет
    Forced : Нет
    Текст #1
    Идентификатор : 8
    Формат : UTF-8
    Идентификатор кодека : S_TEXT/UTF8
    Идентификатор кодека/Информация : UTF-8 Plain Text
    Заголовок : Русские
    Язык : Russian
    Default : Нет
    Forced : Нет
    Текст #2
    Идентификатор : 9
    Формат : UTF-8
    Идентификатор кодека : S_TEXT/UTF8
    Идентификатор кодека/Информация : UTF-8 Plain Text
    Заголовок : Английские
    Язык : English
    Default : Нет
    Forced : Нет
    Меню
    00:00:00.000 : :Chapter 01
    00:05:19.986 : :Chapter 02
    00:09:28.401 : :Chapter 03
    00:15:58.499 : :Chapter 04
    00:22:16.835 : :Chapter 05
    00:25:21.269 : :Chapter 06
    00:33:30.008 : :Chapter 07
    00:36:32.231 : :Chapter 08
    00:42:44.478 : :Chapter 09
    00:46:57.397 : :Chapter 10
    00:51:52.067 : :Chapter 11
    00:55:57.854 : :Chapter 12
    01:02:11.185 : :Chapter 13
    01:08:19.929 : :Chapter 14
    01:14:06.817 : :Chapter 15
    01:24:30.982 : :Chapter 16
    01:29:03.296 : :Chapter 17

    Скриншоты

    Скачать .torrent

    Скачать торрент-файл бесплатно и на максимальной скорости!

    Как скачивать? · Что такое торрент? · Рейтинг и ограничения

    !ВНИМАНИЕ!
    Сайт не распространяет и не хранит электронные версии произведений, а занимается лишь лишь предоставлением доступа к создаваемому пользователями каталогу ссылок на торрент-файлы, которые содержат только списки хеш-сумм, убедительная просьба с жалобами обращаться напрямую к пользователю. Файлы для обмена на трекере предоставлены пользователями сайта, и администрация не несёт ответственности за их содержание. Просьба не заливать файлы, защищенные авторскими правами, а также файлы нелегального содержания!


    _________________
    [Профиль] [ЛС]
    Показать сообщения:    
    Ответить на тему

    Текущее время: Сегодня, в 04:03

    Часовой пояс: GMT + 2



    Вы не можете начинать темы
    Вы не можете отвечать на сообщения
    Вы не можете редактировать свои сообщения
    Вы не можете удалять свои сообщения
    Вы не можете голосовать в опросах
    Вы не можете прикреплять файлы к сообщениям
    Вы не можете скачивать файлы