BitTorrentTracker PerecTracker.org
BitTorrentTracker PerecTracker.org
    
Регистрация  ·  Вход
 
 · 
Забыли пароль?

  • Охотник за пришельцами / Охотники за пришельцами / Alien Hunter (Рон Краусс / Ron Krauss) [2003, США, Болгария, фантастика, боевик, триллер, приключения, WEB-DL 720p] 3x MVO + DVO + Sub Eng + Original Eng

    Ответить на тему
     
    Автор Сообщение

    Flirldrerve

    Создавать темы 19-Фев-2016 02:50

           

    [Цитировать]

    Охотник за пришельцами / Охотники за пришельцами / Alien Hunter
    Страна: США, Болгария
    Студия: Millennium Films, Nu-Image Films
    Жанр: фантастика, боевик, триллер, приключения
    Год выпуска: 2003
    Продолжительность: 01:31:47
    Перевод: Профессиональный (многоголосый закадровый)
    Перевод 2: Профессиональный (двухголосый закадровый)
    Перевод 3: Профессиональный (многоголосый закадровый) 1 канал
    Перевод 4: Профессиональный (многоголосый закадровый) ТВ 3
    Cубтитры: английские
    Оригинальная аудиодорожка: английский
    Режиссер: Рон Краусс / Ron Krauss
    В ролях: Джеймс Спэйдер, Джанин Эсер, Джон Линч, Николай Бинев, Лесли Стефансон, Эйми Грэм, Стюарт Чарно, Карл Льюис, Светла Василева, Энтони Кривелло
    Описание: Давние надежды человечества сбылись! В Антарктиде находят таинственный артефакт внеземного происхождения, и теперь становится ясно: мы не одиноки во Вселенной. Но рука об руку с надеждами следуют и самые темные страхи о том, что же нужно этому организму на нашей планете? Не представляет ли он угрозу для нашей цивилизации? На все эти вопросы должны ответить ученые, среди которых блестящий криптолог Джулиен Роум.
    Однако чем дальше Роум продвигается в своих изысканиях, тем отчетливее он понимает: возможность космической угрозы ничто по сравнению с грязными играми, которые начинаются вокруг артефакта. Играми, которые могут поставить человечество на грань жуткой катастрофы…


    Sample
    Тип релиза: WEB-DL 720p
    Контейнер: MKV
    Видео: MPEG4 AVC Video, H264, 16:9, 1280x718, 23.976 fps, 4064 kbps
    Аудио: Russian (AC3, 6 ch, 384 kbps, 16 bits, 48.0 KHz) - MVO
    Аудио 2: Russian (AC3, 6 ch, 384 kbps, 16 bits, 48.0 KHz) - DVO
    Аудио 3: Russian (AC3, 2 ch, 192 kbps, 16 bits, 48.0 KHz) - 1 канал
    Аудио 4: Russian (AC3, 2 ch, 192 kbps, 16 bits, 48.0 KHz) - ТВ 3
    Аудио 5: English (AC3, 6 ch, 448 kbps, 16 bits, 48.0 KHz) - оригинал
    Формат субтитров: softsub (SRT)

    MediaInfo

    General
    Unique ID : 214974700198059652427126716330058796260 (0xA1BA9F0990D2768EA1BFCF426EB14CE4)
    Complete name : E:\Alien Hunter 2003 WEB-DL 720p.mkv
    Format : Matroska
    Format version : Version 4 / Version 2
    File size : 3.71 GiB
    Duration : 1h 31mn
    Overall bit rate : 5 779 Kbps
    Encoded date : UTC 2016-02-14 07:47:20
    Writing application : mkvmerge v6.1.0 ('Old Devil') built on Mar 2 2013 14:32:37
    Writing library : libebml v1.3.0 + libmatroska v1.4.0
    Video
    ID : 1
    Format : AVC
    Format/Info : Advanced Video Codec
    Format profile : High@L3.1
    Format settings, CABAC : No
    Format settings, ReFrames : 2 frames
    Codec ID : V_MPEG4/ISO/AVC
    Duration : 1h 31mn
    Bit rate : 4 064 Kbps
    Width : 1 280 pixels
    Height : 718 pixels
    Display aspect ratio : 16:9
    Frame rate mode : Constant
    Frame rate : 23.976 fps
    Color space : YUV
    Chroma subsampling : 4:2:0
    Bit depth : 8 bits
    Scan type : Progressive
    Bits/(Pixel*Frame) : 0.184
    Stream size : 2.61 GiB (70%)
    Language : English
    Default : Yes
    Forced : No
    Color primaries : BT.709
    Transfer characteristics : BT.709
    Matrix coefficients : BT.709
    Audio #1
    ID : 2
    Format : AC-3
    Format/Info : Audio Coding 3
    Mode extension : CM (complete main)
    Format settings, Endianness : Big
    Codec ID : A_AC3
    Duration : 1h 31mn
    Bit rate mode : Constant
    Bit rate : 384 Kbps
    Channel count : 6 channels
    Channel positions : Front: L C R, Side: L R, LFE
    Sampling rate : 48.0 KHz
    Bit depth : 16 bits
    Compression mode : Lossy
    Stream size : 252 MiB (7%)
    Title : MVO
    Language : Russian
    Default : Yes
    Forced : No
    Audio #2
    ID : 3
    Format : AC-3
    Format/Info : Audio Coding 3
    Mode extension : CM (complete main)
    Format settings, Endianness : Big
    Codec ID : A_AC3
    Duration : 1h 31mn
    Bit rate mode : Constant
    Bit rate : 384 Kbps
    Channel count : 6 channels
    Channel positions : Front: L C R, Side: L R, LFE
    Sampling rate : 48.0 KHz
    Bit depth : 16 bits
    Compression mode : Lossy
    Stream size : 252 MiB (7%)
    Title : DVO
    Language : Russian
    Default : No
    Forced : No
    Audio #3
    ID : 4
    Format : AC-3
    Format/Info : Audio Coding 3
    Mode extension : CM (complete main)
    Format settings, Endianness : Big
    Codec ID : A_AC3
    Duration : 1h 31mn
    Bit rate mode : Constant
    Bit rate : 192 Kbps
    Channel count : 2 channels
    Channel positions : Front: L R
    Sampling rate : 48.0 KHz
    Bit depth : 16 bits
    Compression mode : Lossy
    Stream size : 126 MiB (3%)
    Title : 1 канал
    Language : Russian
    Default : No
    Forced : No
    Audio #4
    ID : 5
    Format : AC-3
    Format/Info : Audio Coding 3
    Mode extension : CM (complete main)
    Format settings, Endianness : Big
    Codec ID : A_AC3
    Duration : 1h 31mn
    Bit rate mode : Constant
    Bit rate : 192 Kbps
    Channel count : 2 channels
    Channel positions : Front: L R
    Sampling rate : 48.0 KHz
    Bit depth : 16 bits
    Compression mode : Lossy
    Stream size : 126 MiB (3%)
    Title : ТВ 3
    Language : Russian
    Default : No
    Forced : No
    Audio #5
    ID : 6
    Format : AC-3
    Format/Info : Audio Coding 3
    Mode extension : CM (complete main)
    Format settings, Endianness : Big
    Codec ID : A_AC3
    Duration : 1h 31mn
    Bit rate mode : Constant
    Bit rate : 448 Kbps
    Channel count : 6 channels
    Channel positions : Front: L C R, Side: L R, LFE
    Sampling rate : 48.0 KHz
    Bit depth : 16 bits
    Compression mode : Lossy
    Stream size : 294 MiB (8%)
    Language : English
    Default : No
    Forced : No
    Text
    ID : 7
    Format : UTF-8
    Codec ID : S_TEXT/UTF8
    Codec ID/Info : UTF-8 Plain Text
    Language : English
    Default : No
    Forced : No
    Menu
    00:00:00.000 : en:Start
    00:05:40.000 : en:Julian Rome
    00:07:21.000 : en:A disk from Antarctica
    00:13:07.000 : en:Nyla
    00:14:57.000 : en:The object
    00:17:57.000 : en:Kate Brecher
    00:22:09.000 : en:The corn lab
    00:25:52.000 : en:Alien hunter 101
    00:26:52.000 : en:Grisham
    00:28:18.000 : en:The nature of Julian's work
    00:30:16.000 : en:A low-grade impulse
    00:33:05.000 : en:Identical signals
    00:34:03.000 : en:"It's a black box."
    00:38:00.000 : en:Interrupting something?
    00:41:42.000 : en:Carbon alloy
    00:42:42.000 : en:DO NOT OPEN
    00:48:10.000 : en:Pandora's box
    00:50:42.000 : en:Carrier of the pathogen
    00:54:44.000 : en:"What will IT do with us?"
    00:58:29.000 : en:Julian makes contact
    01:03:00.000 : en:Communication from Bachman
    01:09:01.000 : en:Negative blood tests
    01:14:34.000 : en:Michael runs amuck
    01:16:32.000 : en:"We ARE infected."
    01:19:03.000 : en:The irrigation drains
    01:20:35.000 : en:The alien craft
    01:22:45.000 : en:"They want us to go with them."
    01:26:41.000 : en:The cover-up

    Скриншоты

    Скачать .torrent

    Скачать торрент-файл бесплатно и на максимальной скорости!

    Как скачивать? · Что такое торрент? · Рейтинг и ограничения

    !ВНИМАНИЕ!
    Сайт не распространяет и не хранит электронные версии произведений, а занимается лишь лишь предоставлением доступа к создаваемому пользователями каталогу ссылок на торрент-файлы, которые содержат только списки хеш-сумм, убедительная просьба с жалобами обращаться напрямую к пользователю. Файлы для обмена на трекере предоставлены пользователями сайта, и администрация не несёт ответственности за их содержание. Просьба не заливать файлы, защищенные авторскими правами, а также файлы нелегального содержания!


    _________________
    [Профиль] [ЛС]
    Показать сообщения:    
    Ответить на тему

    Текущее время: Сегодня, в 08:09

    Часовой пояс: GMT + 2



    Вы не можете начинать темы
    Вы не можете отвечать на сообщения
    Вы не можете редактировать свои сообщения
    Вы не можете удалять свои сообщения
    Вы не можете голосовать в опросах
    Вы не можете прикреплять файлы к сообщениям
    Вы не можете скачивать файлы