BitTorrentTracker PerecTracker.org
BitTorrentTracker PerecTracker.org
    
Регистрация  ·  Вход
 
 · 
Забыли пароль?

  • Тайна Аляски / Мистери, Аляска / Mystery, Alaska (Джей Роуч / Jay Roach) [1999, Канада, США, драма, комедия, спорт, WEB-DL 720p] DVO + Sub Eng + Original Eng

    Ответить на тему
     
    Автор Сообщение

    Flirldrerve

    Создавать темы 19-Фев-2016 02:50

           

    [Цитировать]

    Тайна Аляски / Мистери, Аляска / Mystery, Alaska
    Страна: Канада, США
    Студия: Hollywood Pictures, Baldwin/Cohen Productions
    Жанр: драма, комедия, спорт
    Год выпуска: 1999
    Продолжительность: 01:58:53
    Перевод: Профессиональный (двухголосый закадровый)
    Cубтитры: английские
    Оригинальная аудиодорожка: английский
    Режиссер: Джей Роуч / Jay Roach
    В ролях: Рассел Кроу, Хэнк Азария, Мэри МакКормак, Берт Рейнолдс, Колм Мини, Лолита Давидович, Мори Чайкин, Рон Элдард, Райан Норткотт, Майкл Бьюи
    Описание: Небольшой городок, затерянный среди белого безмолвия далекой Аляски, был обречен остаться лишь на карте, а не в истории. Внезапно он оказался в центре всеобщего внимания, когда местная хоккейная команда приняла вызов фаворита НХЛ, знаменитых `New York Rangers`! Взгляды любителей спорта прикованы к маленькому пруду на краю земли, где скоро должен состояться матч века. И исход этого ледового побоища далеко не так очевиден, ведь неизвестно, на что способны таинственные обитатели Аляски.

    Sample
    Тип релиза: WEB-DL 720p
    Контейнер: MKV
    Видео: MPEG4 AVC Video, H264, 16:9, 1280x536, 23.976 fps, 4022 kbps
    Аудио: Russian (AC3, 2 ch, 192 kbps, 16 bits, 48.0 KHz) - DVO
    Аудио 2: English (AC3, 6 ch, 384 kbps, 16 bits, 48.0 KHz) - оригинал
    Формат субтитров: softsub (SRT)

    MediaInfo

    General
    Unique ID : 170950761184847408183636870037057184870 (0x809BEB4376C86D1BAC5112C6CD5E2466)
    Complete name : K:\Mystery Alaska 1999 WEB-DL 720p.mkv
    Format : Matroska
    Format version : Version 4 / Version 2
    File size : 3.90 GiB
    Duration : 1h 58mn
    Overall bit rate : 4 692 Kbps
    Encoded date : UTC 2016-02-17 09:28:40
    Writing application : mkvmerge v6.1.0 ('Old Devil') built on Mar 2 2013 14:32:37
    Writing library : libebml v1.3.0 + libmatroska v1.4.0
    Video
    ID : 1
    Format : AVC
    Format/Info : Advanced Video Codec
    Format profile : Main@L3.1
    Format settings, CABAC : No
    Format settings, ReFrames : 2 frames
    Codec ID : V_MPEG4/ISO/AVC
    Duration : 1h 58mn
    Bit rate : 4 022 Kbps
    Width : 1 280 pixels
    Height : 536 pixels
    Display aspect ratio : 2.40:1
    Frame rate mode : Constant
    Frame rate : 23.976 fps
    Color space : YUV
    Chroma subsampling : 4:2:0
    Bit depth : 8 bits
    Scan type : Progressive
    Bits/(Pixel*Frame) : 0.245
    Stream size : 3.34 GiB (86%)
    Language : English
    Default : Yes
    Forced : No
    Color primaries : BT.709
    Transfer characteristics : BT.709
    Matrix coefficients : BT.709
    Audio #1
    ID : 2
    Format : AC-3
    Format/Info : Audio Coding 3
    Mode extension : CM (complete main)
    Format settings, Endianness : Big
    Codec ID : A_AC3
    Duration : 1h 58mn
    Bit rate mode : Constant
    Bit rate : 192 Kbps
    Channel count : 2 channels
    Channel positions : Front: L R
    Sampling rate : 48.0 KHz
    Bit depth : 16 bits
    Compression mode : Lossy
    Stream size : 163 MiB (4%)
    Language : Russian
    Default : Yes
    Forced : No
    Audio #2
    ID : 3
    Format : AC-3
    Format/Info : Audio Coding 3
    Mode extension : CM (complete main)
    Format settings, Endianness : Big
    Codec ID : A_AC3
    Duration : 1h 58mn
    Bit rate mode : Constant
    Bit rate : 384 Kbps
    Channel count : 6 channels
    Channel positions : Front: L C R, Side: L R, LFE
    Sampling rate : 48.0 KHz
    Bit depth : 16 bits
    Compression mode : Lossy
    Stream size : 327 MiB (8%)
    Language : English
    Default : No
    Forced : No
    Text
    ID : 4
    Format : UTF-8
    Codec ID : S_TEXT/UTF8
    Codec ID/Info : UTF-8 Plain Text
    Language : English
    Default : No
    Forced : No
    Menu
    00:00:00.000 : en:Opening Credits / Welcome to Mystery
    00:04:33.000 : en:The Saturday Game
    00:09:43.000 : en:Big-Time Press
    00:11:38.000 : en:One Tough Critic
    00:13:57.000 : en:"Word Is… Biebe's Out"
    00:19:48.000 : en:An Accidental Shooting
    00:21:25.000 : en:Charlie's Return Home
    00:23:00.000 : en:The Town Meeting
    00:29:08.000 : en:Love in a Small Town
    00:36:05.000 : en:Team Justice
    00:40:44.000 : en:Life in a Small Town
    00:44:06.000 : en:Mother-Daughter Talk
    00:45:33.000 : en:An Embarrassing Verdict
    00:48:05.000 : en:The Outsiders Arrive
    00:56:40.000 : en:Just One Problem… "They're Not Coming"
    01:03:00.000 : en:A Matter of Heart
    01:06:06.000 : en:Saying Goodbye to a Friend
    01:08:42.000 : en:Bailey's Final Victory
    01:09:55.000 : en:Serious Training
    01:13:27.000 : en:The Rangers Arrive
    01:15:03.000 : en:A Lot on the Line
    01:17:59.000 : en:The Important Words
    01:21:58.000 : en:Game Day
    01:25:01.000 : en:Pregame Ceremonies
    01:28:39.000 : en:Face-Off! (A Great Start)
    01:34:03.000 : en:Second Period (The Tide Turns)
    01:40:27.000 : en:Third Period (Coming Back)
    01:44:55.000 : en:The Final Seconds (Winners For Sure!)
    01:50:03.000 : en:Goodbyes
    01:54:06.000 : en:One Last Thank-You / End Credits

    Скриншоты

    Скачать .torrent

    Скачать торрент-файл бесплатно и на максимальной скорости!

    Как скачивать? · Что такое торрент? · Рейтинг и ограничения

    !ВНИМАНИЕ!
    Сайт не распространяет и не хранит электронные версии произведений, а занимается лишь лишь предоставлением доступа к создаваемому пользователями каталогу ссылок на торрент-файлы, которые содержат только списки хеш-сумм, убедительная просьба с жалобами обращаться напрямую к пользователю. Файлы для обмена на трекере предоставлены пользователями сайта, и администрация не несёт ответственности за их содержание. Просьба не заливать файлы, защищенные авторскими правами, а также файлы нелегального содержания!


    _________________
    [Профиль] [ЛС]
    Показать сообщения:    
    Ответить на тему

    Текущее время: Сегодня, в 11:01

    Часовой пояс: GMT + 2



    Вы не можете начинать темы
    Вы не можете отвечать на сообщения
    Вы не можете редактировать свои сообщения
    Вы не можете удалять свои сообщения
    Вы не можете голосовать в опросах
    Вы не можете прикреплять файлы к сообщениям
    Вы не можете скачивать файлы