BitTorrentTracker PerecTracker.org
BitTorrentTracker PerecTracker.org
    
Регистрация  ·  Вход
 
 · 
Забыли пароль?

  • [ATV3] Макбет / Macbeth (Джастин Курзель / Justin Kurzel ) [2015, США, Драма, военный, BDRip, HD (1080p)] DUB + Original + sub (rus, eng)

    Ответить на тему
     
    Автор Сообщение

    Flirldrerve

    Создавать темы 19-Фев-2016 02:50

           

    [Цитировать]

    Макбет / Macbeth
    «Кровь порождает кровь»
    7.402 / 10 7.00 / 10
    -Год выпуска: 2015
    Страна: США
    Жанр: Драма, военный
    Продолжительность: 01:52:52
    Перевод: Дублированный (iTunes)
    Оригинальная аудиодорожка: Есть
    Cубтитры: Русские, Английские, Английские SDH
    Режиссёр: Джастин Курзель
    Сценарий: Джейкоб Коскофф, Майкл Лессли, Тодд Луисо
    Продюсер: Эйн Каннинг, Лаура Гастингс-Смит, Эмиль Шерман
    Оператор: Адам Аркпоу
    Композитор: Джед Курзель
    Художник: Фиона Кромби, Лорен Бриггс-Миллер, Ник Дент
    Монтаж: Крис Дикенс
    В ролях: Майкл Фассбендер, Марион Котийяр, Пэдди Консидайн, Шон Харрис, Джек Рейнор, Элизабет Дебики, Дэвид Тьюлис, Росс Андерсон, Дэвид Хейман, Морис Роевз
    Сборы в США: $1 102 232
    Сборы в России: $486 817
    Мировая премьера: 23 мая 2015
    Премьера (РФ): 26 ноября 2015, «Наше Кино»
    Описание: Холодные поля Шотландии, военный лагерь, всегда готовый переместиться в другое место. Макбет всегда на войне, его жена, недавно потерявшая ребенка, боится потерять еще и мужа. Чтобы удержать его рядом, она начинает свой проект по устранению конкурентов в борьбе за королевскую корону.-Качество исходника: Blu-Ray (BlueBird)
    Качество: BDRip
    Тип: HD (1080p)
    Контейнер: M4V
    Видео: H.264, 1920x800, 2.40:1, 8 000 Kbps, 23.976 (24000/1001) fps
    Аудио 1: Русский/Дублированный (iTunes), AAC / 2.0 / 157 Kbps / 48.0 KHz
    Аудио 2: Английский/Оригинальная дорожка , AAC / 2.0 / 158 Kbps / 48.0 KHz
    Аудио 3: Русский/Дублированный (iTunes), AC-3 / 5.1 / 384 Kbps / 48.0 KHz
    Аудио 4: Английский/Оригинальная дорожка , AC-3 / 5.1 / 640 Kbps / 48.0 KHz
    Субтитры 1: Русские полные
    Субтитры 2: Английские полные
    Субтитры 3: Английские SDH
    -

    iTunes Meta Tags

    Sort Name: Macbeth
    XID: Apple:vendor_id:2015-760740
    contentID: 1045041771
    Copyright: © STUDIOCANAL S.A./Channel Four Television Corporation 2015
    Screenwriters: Джейкоб Коскофф, Майкл Лессли, Тодд Луисо
    Producers: Эйн Каннинг, Лаура Гастингс-Смит, Эмиль Шерман
    Director: Джастин Курзель
    Cast: Майкл Фассбендер, Марион Котийяр, Пэдди Консидайн, Шон Харрис, Джек Рейнор, Элизабет Дебики, Дэвид Тьюлис, Росс Андерсон, Дэвид Хейман, Морис Роевз, Олег Фёдоров, Марина Гладкая, Давид Бродский, Борис Хасанов, Игорь Сергеев
    Studio: The Weinstein Company
    Rating: 125
    Long Description: Холодные поля Шотландии, военный лагерь, всегда готовый переместиться в другое место. Макбет всегда на войне, его жена, недавно потерявшая ребенка, боится потерять еще и мужа. Чтобы удержать его рядом, она начинает свой проект по устранению конкурентов в борьбе за королевскую корону.
    Description: Холодные поля Шотландии, военный лагерь, всегда готовый переместиться в другое место. Макбет всегда на войне, его жена, недавно потерявшая ребенка, боится потерять еще и мужа. Чтобы удержать его рядом, она начинает свой проект по устранению конкурентов в борьбе за королевскую корону.
    Release Date: 2015-05-23T08:00:00Z
    Genre: Drama
    Artist: Justin Kurzel
    Name: Macbeth (2015)

    MediaInfo

    General
    Complete name : /Users/imac/HandBrake/Macbeth (1080p HD).m4v
    Format : MPEG-4
    Codec ID : M4V  (M4V /M4A /mp42/isom)
    File size : 7.36 GiB
    Duration : 1h 52mn
    Overall bit rate mode : Variable
    Overall bit rate : 9 340 Kbps
    Movie name : Macbeth (2015)
    Performer : Justin Kurzel
    Director : Джастин Курзель
    Actor : Майкл Фассбендер / Марион Котийяр / Пэдди Консидайн / Шон Харрис / Джек Рейнор / Элизабет Дебики / Дэвид Тьюлис / Росс Андерсон / Дэвид Хейман / Морис Роевз / Олег Фёдоров / Марина Гладкая / Давид Бродский / Борис Хасанов / Игорь Сергеев
    Screenplay by : Джейкоб Коскофф / Майкл Лессли / Тодд Луисо
    Producer : Эйн Каннинг / Лаура Гастингс-Смит / Эмиль Шерман
    Production studio : The Weinstein Company
    Genre : Drama
    ContentType : Short Film
    Description : Холодные поля Шотландии, военный лагерь, всегда готовый переместиться в другое место. Макбет всегда на войне, его жена, недавно потерявшая ребенка, боится потерять еще и мужа. Чтобы удержать его рядом, она начинает свой проект по устранению конкурентов в борьбе за королевскую корону.
    Recorded date : UTC 2015-05-23 08:00:00
    Encoded date : UTC 2016-02-18 08:52:16
    Tagged date : UTC 2016-02-18 08:54:53
    Copyright : © STUDIOCANAL S.A./Channel Four Television Corporation 2015
    Cover : Yes
    Rating : None
    Title/Sort : Macbeth
    LongDescription : Холодные поля Шотландии, военный лагерь, всегда готовый переместиться в другое место. Макбет всегда на войне, его жена, недавно потерявшая ребенка, боится потерять еще и мужа. Чтобы удержать его рядом, она начинает свой проект по устранению конкурентов в борьбе за королевскую корону.
    AppleStoreCatalogID : 1045041771
    Vendor : Apple:vendor_id:2015-760740
    ContentRating : uk-movie|15|350|
    Video #1
    ID : 1
    Format : AVC
    Format/Info : Advanced Video Codec
    Format profile : High@L4
    Format settings, CABAC : Yes
    Format settings, ReFrames : 4 frames
    Codec ID : avc1
    Codec ID/Info : Advanced Video Coding
    Duration : 1h 52mn
    Source duration : 1h 52mn
    Bit rate : 8 000 Kbps
    Width : 1 920 pixels
    Height : 800 pixels
    Display aspect ratio : 2.40:1
    Frame rate mode : Variable
    Frame rate : 23.976 (24000/1001) fps
    Minimum frame rate : 23.810 fps
    Maximum frame rate : 24.318 fps
    Color space : YUV
    Chroma subsampling : 4:2:0
    Bit depth : 8 bits
    Scan type : Progressive
    Bits/(Pixel*Frame) : 0.217
    Stream size : 6.30 GiB (86%)
    Source stream size : 6.30 GiB (86%)
    Title : Main Program
    Writing library : x264 core 142 r2479 dd79a61
    Encoding settings : cabac=1 / ref=4 / deblock=1:-2:-2 / analyse=0x3:0x133 / me=umh / subme=10 / psy=1 / psy_rd=1.00:0.15 / mixed_ref=1 / me_range=32 / chroma_me=1 / trellis=2 / 8x8dct=1 / cqm=0 / deadzone=21,11 / fast_pskip=0 / chroma_qp_offset=-3 / threads=36 / lookahead_threads=6 / sliced_threads=0 / nr=0 / decimate=0 / interlaced=0 / bluray_compat=0 / constrained_intra=0 / bframes=16 / b_pyramid=2 / b_adapt=2 / b_bias=0 / direct=3 / weightb=1 / open_gop=0 / weightp=2 / keyint=240 / keyint_min=24 / scenecut=40 / intra_refresh=0 / rc_lookahead=60 / rc=2pass / mbtree=1 / bitrate=8000 / ratetol=1.0 / qcomp=0.70 / qpmin=0 / qpmax=69 / qpstep=4 / cplxblur=20.0 / qblur=0.5 / vbv_maxrate=25000 / vbv_bufsize=25000 / nal_hrd=none / filler=0 / ip_ratio=1.40 / aq=1:1.00
    Language : English
    Encoded date : UTC 2016-02-18 08:52:16
    Tagged date : UTC 2016-02-18 08:52:30
    Color range : Limited
    Color primaries : BT.709
    Transfer characteristics : BT.709
    Matrix coefficients : BT.709
    Menus : 9,10
    Video #2
    ID : 10
    Format : JPEG
    Codec ID : jpeg
    Duration : 1h 52mn
    Bit rate mode : Variable
    Bit rate : 457 bps
    Width : 640 pixels
    Height : 266 pixels
    Display aspect ratio : 2.40:1
    Frame rate mode : Variable
    Frame rate : 0.002 fps
    Minimum frame rate : 0.001 fps
    Maximum frame rate : 0.003 fps
    Color space : YUV
    Chroma subsampling : 4:2:0
    Bit depth : 8 bits
    Compression mode : Lossy
    Bits/(Pixel*Frame) : 1.342
    Stream size : 335 KiB (0%)
    Title : Chapter Images
    Language : English
    Default : No
    Encoded date : UTC 2016-02-18 08:52:36
    Tagged date : UTC 2016-02-18 08:52:37
    Menu For : 1
    Audio #1
    ID : 2
    Format : AAC
    Format/Info : Advanced Audio Codec
    Format profile : LC
    Codec ID : 40
    Duration : 1h 52mn
    Bit rate mode : Variable
    Bit rate : 157 Kbps
    Maximum bit rate : 233 Kbps
    Channel(s) : 2 channels
    Channel positions : Front: L R
    Sampling rate : 48.0 KHz
    Frame rate : 46.875 fps (1024 spf)
    Compression mode : Lossy
    Stream size : 127 MiB (2%)
    Title : Russian Stereo
    Language : Russian
    Default : Yes
    Alternate group : 1
    Encoded date : UTC 2016-02-18 08:52:16
    Tagged date : UTC 2016-02-18 08:52:31
    Fallback From : 4
    Menus : 9
    Audio #2
    ID : 3
    Format : AAC
    Format/Info : Advanced Audio Codec
    Format profile : LC
    Codec ID : 40
    Duration : 1h 52mn
    Bit rate mode : Variable
    Bit rate : 158 Kbps
    Maximum bit rate : 224 Kbps
    Channel(s) : 2 channels
    Channel positions : Front: L R
    Sampling rate : 48.0 KHz
    Frame rate : 46.875 fps (1024 spf)
    Compression mode : Lossy
    Stream size : 128 MiB (2%)
    Title : English Stereo
    Language : English
    Default : No
    Alternate group : 1
    Encoded date : UTC 2016-02-18 08:52:17
    Tagged date : UTC 2016-02-18 08:52:28
    Fallback From : 5
    Audio #3
    ID : 4
    Format : AC-3
    Format/Info : Audio Coding 3
    Mode extension : CM (complete main)
    Format settings, Endianness : Big
    Codec ID : ac-3
    Duration : 1h 52mn
    Bit rate mode : Constant
    Bit rate : 384 Kbps
    Channel(s) : 6 channels
    Channel positions : Front: L C R, Side: L R, LFE
    Sampling rate : 48.0 KHz
    Frame rate : 31.250 fps (1536 spf)
    Bit depth : 16 bits
    Compression mode : Lossy
    Stream size : 310 MiB (4%)
    Title : Russian DD 5.1
    Language : Russian
    Default : Inherited From: 2
    Alternate group : 1
    Encoded date : UTC 2016-02-18 08:52:17
    Tagged date : UTC 2016-02-18 08:52:24
    Fallback To : 2
    Audio #4
    ID : 5
    Format : AC-3
    Format/Info : Audio Coding 3
    Mode extension : CM (complete main)
    Format settings, Endianness : Big
    Codec ID : ac-3
    Duration : 1h 52mn
    Bit rate mode : Constant
    Bit rate : 640 Kbps
    Channel(s) : 6 channels
    Channel positions : Front: L C R, Side: L R, LFE
    Sampling rate : 48.0 KHz
    Frame rate : 31.250 fps (1536 spf)
    Bit depth : 16 bits
    Compression mode : Lossy
    Stream size : 517 MiB (7%)
    Title : English DD 5.1
    Language : English
    Default : No
    Alternate group : 1
    Encoded date : UTC 2016-02-18 08:52:17
    Tagged date : UTC 2016-02-18 08:52:24
    Fallback To : 3
    Text #1
    ID : 6
    Format : Timed Text
    Muxing mode : sbtl
    Codec ID : tx3g
    Duration : 1h 46mn
    Bit rate mode : Variable
    Bit rate : 53 bps
    Stream size : 41.5 KiB (0%)
    Title : Russian full
    Language : Russian
    Default : Yes
    Forced : No
    Alternate group : 2
    Encoded date : UTC 2016-02-18 08:52:17
    Tagged date : UTC 2016-02-18 08:52:17
    Text #2
    ID : 7
    Format : Timed Text
    Muxing mode : sbtl
    Codec ID : tx3g
    Duration : 1h 44mn
    Bit rate mode : Variable
    Bit rate : 40 bps
    Stream size : 30.2 KiB (0%)
    Title : English full
    Language : English
    Default : No
    Forced : No
    Alternate group : 2
    Encoded date : UTC 2016-02-18 08:52:17
    Tagged date : UTC 2016-02-18 08:52:17
    Text #3
    ID : 8
    Format : Timed Text
    Muxing mode : sbtl
    Codec ID : tx3g
    Duration : 1h 44mn
    Bit rate mode : Variable
    Bit rate : 41 bps
    Stream size : 31.1 KiB (0%)
    Title : English SDH
    Language : English
    Default : No
    Forced : No
    Alternate group : 2
    Encoded date : UTC 2016-02-18 08:52:17
    Tagged date : UTC 2016-02-18 08:52:17
    Menu #1
    00:00:00.000 : Chapter 1
    00:09:44.584 : Chapter 2
    00:18:19.598 : Chapter 3
    00:33:11.156 : Chapter 4
    00:42:30.798 : Chapter 5
    00:51:18.242 : Chapter 6
    01:00:19.407 : Chapter 7
    01:11:23.279 : Chapter 8
    01:16:26.290 : Chapter 9
    01:26:24.763 : Chapter 10
    01:34:00.051 : Chapter 11
    01:46:27.131 : Chapter 12
    Menu #2
    ID : 9
    Codec ID : text
    Duration : 1h 52mn
    Language : English
    Encoded date : UTC 2016-02-18 08:52:31
    Tagged date : UTC 2016-02-18 08:52:31
    Menu For : 2,1
    00:00:00.000 : Chapter 1
    00:09:44.584 : Chapter 2
    00:18:19.598 : Chapter 3
    00:33:11.156 : Chapter 4
    00:42:30.798 : Chapter 5
    00:51:18.242 : Chapter 6
    01:00:19.407 : Chapter 7
    01:11:23.279 : Chapter 8
    01:16:26.290 : Chapter 9
    01:26:24.763 : Chapter 10
    01:34:00.051 : Chapter 11
    01:46:27.131 : Chapter 12
    Bit rate mode : VBR

    x264 лог

    x264 [info]: frame I:908   Avg QP:14.06  size:174541
    x264 [info]: frame P:34967 Avg QP:16.53  size: 62768
    x264 [info]: frame B:126502 Avg QP:17.16  size: 34880
    x264 [info]: consecutive B-frames:  2.9%  2.7%  8.5%  8.6% 14.8% 50.7%  6.1%  1.4%  1.2%  0.8%  0.8%  0.3%  0.3%  0.3%  0.1%  0.2%  0.3%
    x264 [info]: mb I  I16..4: 15.2% 76.3%  8.5%
    x264 [info]: mb P  I16..4:  3.2% 16.0%  0.7%  P16..4: 45.6% 17.9%  9.7%  0.2%  0.1%    skip: 6.6%
    x264 [info]: mb B  I16..4:  0.3%  2.6%  0.0%  B16..8: 43.1% 11.6%  2.5%  direct: 9.0%  skip:30.9%  L0:46.7% L1:46.1% BI: 7.2%
    x264 [info]: 8x8 transform intra:82.5% inter:60.6%
    x264 [info]: direct mvs  spatial:98.9% temporal:1.1%
    x264 [info]: coded y,uvDC,uvAC intra: 82.1% 69.7% 48.9% inter: 34.7% 28.6% 8.6%
    x264 [info]: i16 v,h,dc,p: 50% 12% 16% 22%
    x264 [info]: i8 v,h,dc,ddl,ddr,vr,hd,vl,hu:  7%  6% 19% 10% 12% 11% 12% 10% 12%
    x264 [info]: i4 v,h,dc,ddl,ddr,vr,hd,vl,hu:  9%  7%  9% 11% 15% 13% 13% 11% 13%
    x264 [info]: i8c dc,h,v,p: 54% 20% 16% 10%
    x264 [info]: Weighted P-Frames: Y:8.9% UV:6.2%
    x264 [info]: ref P L0: 47.9%  6.6% 27.7% 14.6%  3.0%  0.2%
    x264 [info]: ref B L0: 79.2% 16.7%  4.0%
    x264 [info]: ref B L1: 87.7% 12.3%
    x264 [info]: kb/s:7991.95

    Скриншоты

    -

    Релиз подготовлен для просмотра на Apple TV, iPad, iPhone, iPod Touch.
    Для просмотра данного релиза на компьютере с ОС Windows рекомендуется использовать VLC media player
    Скачать .torrent

    Скачать торрент-файл бесплатно и на максимальной скорости!

    Как скачивать? · Что такое торрент? · Рейтинг и ограничения

    !ВНИМАНИЕ!
    Сайт не распространяет и не хранит электронные версии произведений, а занимается лишь лишь предоставлением доступа к создаваемому пользователями каталогу ссылок на торрент-файлы, которые содержат только списки хеш-сумм, убедительная просьба с жалобами обращаться напрямую к пользователю. Файлы для обмена на трекере предоставлены пользователями сайта, и администрация не несёт ответственности за их содержание. Просьба не заливать файлы, защищенные авторскими правами, а также файлы нелегального содержания!


    _________________
    [Профиль] [ЛС]
    Показать сообщения:    
    Ответить на тему

    Текущее время: Сегодня, в 22:08

    Часовой пояс: GMT + 2



    Вы не можете начинать темы
    Вы не можете отвечать на сообщения
    Вы не можете редактировать свои сообщения
    Вы не можете удалять свои сообщения
    Вы не можете голосовать в опросах
    Вы не можете прикреплять файлы к сообщениям
    Вы не можете скачивать файлы