Register  ·  Log in
Forgot password?

  • Зло (Ирина Брель) [2014, Беларусь, драма, DVDRip] Sub Eng + Original Rus

    Reply to topic
    Author Message


    Post 19-Feb-2016 03:50



    Страна: Беларусь
    Жанр: драма
    Год выпуска: 2014
    Продолжительность: 1:13:28
    Перевод: Не требуется
    Cубтитры: английские
    Оригинальная аудиодорожка: русский
    Режиссер: Ирина Брель
    В ролях: Иван Трус,Екатерина Ергулевич,Андрей Добровольский,Александр Вергун,Мария Исаева,Сергей Анцелевич
    Описание: В основе сюжета лежит трагическая история семьи. Отношения через границы взаимной подозрительности и настороженности. Зло, от которого никому не становится легче. О женщине, стойко переживающей насилие в собственной семье. О мужчине, твердо влекущим своим внутренним эго в темную сторону жизни. О том, что было и что теперь.
    Доп. информация: Бюджет 3000$
    Качество видео: DVDRip
    Формат видео: AVI
    Видео: 640x352 , Xvid , 24fps , 1343kbps
    Аудио: MP3 44100Hz stereo 128kbps
    Формат субтитров: hardsub (неотключаемые)


    Complete name : D:\zlo_2014.avi
    Format : AVI
    Format/Info : Audio Video Interleave
    File size : 778 MiB
    Duration : 1h 13mn
    Overall bit rate : 1 481 Kbps
    Writing application : VirtualDubMod (build 2540/release)
    Writing library : VirtualDubMod build 2540/release
    ID : 0
    Format : xvid
    Codec ID : xvid
    Duration : 1h 13mn
    Bit rate : 1 344 Kbps
    Width : 640 pixels
    Height : 352 pixels
    Display aspect ratio : 16:9
    Frame rate : 24.000 fps
    Bits/(Pixel*Frame) : 0.249
    Stream size : 706 MiB (91%)
    ID : 1
    Format : MPEG Audio
    Format version : Version 1
    Format profile : Layer 3
    Mode : Joint stereo
    Codec ID : 55
    Codec ID/Hint : MP3
    Duration : 1h 13mn
    Bit rate mode : Constant
    Bit rate : 128 Kbps
    Channel(s) : 2 channels
    Sampling rate : 44.1 KHz
    Compression mode : Lossy
    Stream size : 67.3 MiB (9%)
    Alignment : Split accross interleaves
    Interleave, duration : 42 ms (1.00 video frame)
    Interleave, preload duratio : 500 ms
    Writing library : LAME3.98.4

    Скриншот c названием фильма


    Download .torrent

    Download free and at maximum speed!

    How to Download? · What is a torrent? · Ratings and Limitations

    The site does not extend and does not store electronic(digital) versions of products, and only gives access to a reference catalogue created by users on torrent-files which contain only lists of the hash-sums, the earnest entreaty, with complaints(abuse) to access directly to the user. Files for an exchange on tracker are given by users of a site, and the administration does not bear the responsibility for their maintenance. The request to not fill in the files protected by copyrights, and also files of the illegal maintenance!

    [Profile] [PM]
    Display posts from previous:    
    Reply to topic

    The time now is: Today 09:48

    All times are GMT + 3 Hours

    You cannot post new topics in this forum
    You cannot reply to topics in this forum
    You cannot edit your posts in this forum
    You cannot delete your posts in this forum
    You cannot vote in polls in this forum
    You cannot attach files in this forum
    You cannot download files in this forum