BitTorrentTracker PerecTracker.org
BitTorrentTracker PerecTracker.org
    
Регистрация  ·  Вход
 
 · 
Забыли пароль?

  • Зло (Ирина Брель) [2014, Беларусь, драма, DVDRip] Sub Eng + Original Rus

    Ответить на тему
     
    Автор Сообщение

    rechyn

    Создавать темы 19-Фев-2016 02:50

           

    [Цитировать]

    Зло
    Страна: Беларусь
    Жанр: драма
    Год выпуска: 2014
    Продолжительность: 1:13:28
    Перевод: Не требуется
    Cубтитры: английские
    Оригинальная аудиодорожка: русский
    Режиссер: Ирина Брель
    В ролях: Иван Трус,Екатерина Ергулевич,Андрей Добровольский,Александр Вергун,Мария Исаева,Сергей Анцелевич
    Описание: В основе сюжета лежит трагическая история семьи. Отношения через границы взаимной подозрительности и настороженности. Зло, от которого никому не становится легче. О женщине, стойко переживающей насилие в собственной семье. О мужчине, твердо влекущим своим внутренним эго в темную сторону жизни. О том, что было и что теперь.
    Доп. информация: Бюджет 3000$
    Сэмпл: http://multi-up.com/1089520
    Качество видео: DVDRip
    Формат видео: AVI
    Видео: 640x352 , Xvid , 24fps , 1343kbps
    Аудио: MP3 44100Hz stereo 128kbps
    Формат субтитров: hardsub (неотключаемые)

    MediaInfo

    General
    Complete name : D:\zlo_2014.avi
    Format : AVI
    Format/Info : Audio Video Interleave
    File size : 778 MiB
    Duration : 1h 13mn
    Overall bit rate : 1 481 Kbps
    Writing application : VirtualDubMod 1.5.10.2 (build 2540/release)
    Writing library : VirtualDubMod build 2540/release
    Video
    ID : 0
    Format : xvid
    Codec ID : xvid
    Duration : 1h 13mn
    Bit rate : 1 344 Kbps
    Width : 640 pixels
    Height : 352 pixels
    Display aspect ratio : 16:9
    Frame rate : 24.000 fps
    Bits/(Pixel*Frame) : 0.249
    Stream size : 706 MiB (91%)
    Audio
    ID : 1
    Format : MPEG Audio
    Format version : Version 1
    Format profile : Layer 3
    Mode : Joint stereo
    Codec ID : 55
    Codec ID/Hint : MP3
    Duration : 1h 13mn
    Bit rate mode : Constant
    Bit rate : 128 Kbps
    Channel(s) : 2 channels
    Sampling rate : 44.1 KHz
    Compression mode : Lossy
    Stream size : 67.3 MiB (9%)
    Alignment : Split accross interleaves
    Interleave, duration : 42 ms (1.00 video frame)
    Interleave, preload duratio : 500 ms
    Writing library : LAME3.98.4

    Скриншот c названием фильма

    Скриншоты





    Скачать .torrent

    Скачать торрент-файл бесплатно и на максимальной скорости!

    Как скачивать? · Что такое торрент? · Рейтинг и ограничения

    !ВНИМАНИЕ!
    Сайт не распространяет и не хранит электронные версии произведений, а занимается лишь лишь предоставлением доступа к создаваемому пользователями каталогу ссылок на торрент-файлы, которые содержат только списки хеш-сумм, убедительная просьба с жалобами обращаться напрямую к пользователю. Файлы для обмена на трекере предоставлены пользователями сайта, и администрация не несёт ответственности за их содержание. Просьба не заливать файлы, защищенные авторскими правами, а также файлы нелегального содержания!


    _________________
    [Профиль] [ЛС]
    Показать сообщения:    
    Ответить на тему

    Текущее время: Сегодня, в 09:09

    Часовой пояс: GMT + 2



    Вы не можете начинать темы
    Вы не можете отвечать на сообщения
    Вы не можете редактировать свои сообщения
    Вы не можете удалять свои сообщения
    Вы не можете голосовать в опросах
    Вы не можете прикреплять файлы к сообщениям
    Вы не можете скачивать файлы