BitTorrentTracker PerecTracker.org
BitTorrentTracker PerecTracker.org
    
Регистрация  ·  Вход
 
 · 
Забыли пароль?

  • Война / Krigen (Тобиас Линдхольм / Tobias Lindholm) [2015, Дания, драма, военный, DVDRip] VO (LetEatBee)

    Ответить на тему
     
    Автор Сообщение

    rechyn

    Создавать темы 19-Фев-2016 02:50

           

    [Цитировать]

    Война / Krigen
    Страна: Дания
    Жанр: драма, военный
    Год выпуска: 2015
    Продолжительность: 1:50:11
    Перевод: Одноголосый закадровый LetEatBee по субтитрам adelstein_s
    Режиссер: Тобиас Линдхольм / Tobias Lindholm
    В ролях: Йохан Филип Асбек, Тува Новотны, Сёрен Маллинг, Дар Салим, Шарлотте Мунк
    Описание: Клаус Микаэль Педерсен служит в Афганистане, командуя ротой датских солдат. Во время патрулирования одного афганского селения отряд во главе с Педерсеном попадает в засаду, устроенную талибами. Рядовой Лассе тяжело ранен. Пытаясь спасти его жизнь, командир предпринимает отчаянный шаг, который в итоге приводит его на скамью подсудимых.
    Доп. информация: Номинации:
    кинопремия "Оскар" (2016)
    Венецианский кинофестиваль (2015)
    Сэмпл: https://yadi.sk/d/TBIbzYwCp3ZaG
    Качество видео: DVDRip
    Формат видео: AVI
    Видео: 704x384 (16:9), 25 fps, XviD, ~1504 Kbps avg, 0,22 bit/pixel
    Аудио: 48 kHz, AC3 Dolby Digital, 6 ch, ~384 kbps

    MediaInfo

    Format : AVI
    Format/Info : Audio Video Interleave
    File size : 1.46 GiB
    Duration : 1h 50mn
    Overall bit rate : 1 898 Kbps
    Writing application : VirtualDubMod 1.5.10.3 (build 2550/release)
    Writing library : VirtualDubMod build 2550/release
    Video
    ID : 0
    Format : MPEG-4 Visual
    Format profile : Advanced Simple@L5
    Format settings, BVOP : 1
    Format settings, QPel : No
    Format settings, GMC : No warppoints
    Format settings, Matrix : Default (MPEG)
    Codec ID : XVID
    Codec ID/Hint : XviD
    Duration : 1h 50mn
    Bit rate : 1 504 Kbps
    Width : 704 pixels
    Height : 384 pixels
    Display aspect ratio : 1.85:1
    Frame rate : 25.000 fps
    Color space : YUV
    Chroma subsampling : 4:2:0
    Bit depth : 8 bits
    Scan type : Progressive
    Compression mode : Lossy
    Bits/(Pixel*Frame) : 0.223
    Stream size : 1.16 GiB (79%)
    Writing library : XviD 1.2.1 (UTC 2008-12-04)
    Audio
    ID : 1
    Format : AC-3
    Format/Info : Audio Coding 3
    Mode extension : CM (complete main)
    Format settings, Endianness : Big
    Codec ID : 2000
    Duration : 1h 50mn
    Bit rate mode : Constant
    Bit rate : 384 Kbps
    Channel(s) : 6 channels
    Channel positions : Front: L C R, Side: L R, LFE
    Sampling rate : 48.0 KHz
    Compression mode : Lossy
    Stream size : 303 MiB (20%)
    Alignment : Split accross interleaves
    Interleave, duration : 40 ms (1.00 video frame)
    Interleave, preload duratio : 500 ms

    Скриншот c названием фильма

    Скриншоты

    Скачать .torrent

    Скачать торрент-файл бесплатно и на максимальной скорости!

    Как скачивать? · Что такое торрент? · Рейтинг и ограничения

    !ВНИМАНИЕ!
    Сайт не распространяет и не хранит электронные версии произведений, а занимается лишь лишь предоставлением доступа к создаваемому пользователями каталогу ссылок на торрент-файлы, которые содержат только списки хеш-сумм, убедительная просьба с жалобами обращаться напрямую к пользователю. Файлы для обмена на трекере предоставлены пользователями сайта, и администрация не несёт ответственности за их содержание. Просьба не заливать файлы, защищенные авторскими правами, а также файлы нелегального содержания!


    _________________
    [Профиль] [ЛС]
    Показать сообщения:    
    Ответить на тему

    Текущее время: Сегодня, в 13:00

    Часовой пояс: GMT + 2



    Вы не можете начинать темы
    Вы не можете отвечать на сообщения
    Вы не можете редактировать свои сообщения
    Вы не можете удалять свои сообщения
    Вы не можете голосовать в опросах
    Вы не можете прикреплять файлы к сообщениям
    Вы не можете скачивать файлы