BitTorrentTracker PerecTracker.org
BitTorrentTracker PerecTracker.org
    
Регистрация  ·  Вход
 
 · 
Забыли пароль?

  • Одиночка / Le Solitaire (Жак Дере / Jacques Deray) [1987, Франция, боевик, триллер, драма, криминал, BDRip 720p] Dub + MVO (Cinema Prestige) + 2x DVO (НТВ+, Twister) + Sub Rus, Ukr, Fre + Original Fre

    Ответить на тему
     
    Автор Сообщение

    Flirldrerve

    Создавать темы 18-Фев-2016 03:13

           

    [Цитировать]

    Одиночка / Le Solitaire
    Страна: Франция
    Студия: Cerito Films, Sara Films
    Жанр: Боевик, триллер, драма, криминал..
    Год выпуска: 1987
    Продолжительность: 01:32:06
    Перевод 1: Профессиональный (дублированный) Киностудия им. М. Горького
    Перевод 2: Профессиональный (многоголосый закадровый) Cinema Prestige
    Перевод 3: Профессиональный (двухголосый закадровый) НТВ+
    Перевод 4: Профессиональный (двухголосый закадровый) Twister
    Cубтитры: русские, украинские, французские
    Оригинальная аудиодорожка: французский--Режиссер: Жак Дере / Jacques Deray--В ролях: Жан-Поль Бельмондо, Жан-Пьер Мало, Мишель Бон, Пьер Вернье, Франсуа Дюнойе, Франк Айя, Лоран Жандрон, Жан-Клод Де Горос, Ги Паннекин, Патриция Мальвуазен...--Описание: До каких границ может дойти служитель закона в борьбе с преступниками, которые границ не знают? Комиссара Стэна называли фашистом с куриными мозгами и стальными мускулами. Но он справедлив и надежен и не остановиться ни перед чем, чтобы отомстить за гибель своего напарника и друга...--Доп. информация: | IMDB | КиноПоиск | Сэмпл--Источник: Одиночка / Le solitaire (1987) Blu-ray [Custom] 1080i AVC DD 2.0
    Тип релиза: BDRip 720p
    Контейнер: MKV
    Видео: x264@L4.1, 1280x690, 25.000 fps, 6822 kbps avg
    Аудио 1: AC3, 48000 Hz, 2ch, 192 kbps | Дубляж, Киностудия им. М. Горького
    Аудио 2: AC3, 48000 Hz, 2ch, 192 kbps | MVO, Cinema Prestige
    Аудио 3: AC3, 48000 Hz, 2ch, 192 kbps | DVO, НТВ+
    Аудио 4: AC3, 48000 Hz, 2ch, 192 kbps | DVO, Twister
    Аудио 5: DTS, 48000 Hz, 2ch, 1509 kbps | Original
    Формат субтитров: softsub (SRT)

    Скриншоты

    MediaInfo

    General
    Unique ID : 217257037090496192571936629636989143672 (0xA3722EEF1E147E788C90291552E34A78)
    Complete name : Le Solitaire (1987).mkv
    Format : Matroska
    Format version : Version 4 / Version 2
    File size : 5.86 GiB
    Duration : 1h 32mn
    Overall bit rate : 9 104 Kbps
    Movie name : Le Solitaire / Одиночка (1987)
    Encoded date : UTC 2016-02-16 06:28:45
    Writing application : mkvmerge v8.1.0 ('Psychedelic Postcard') 64bit
    Writing library : libebml v1.3.1 + libmatroska v1.4.2
    Cover : Yes
    Attachments : cover.jpg
    Video
    ID : 1
    Format : AVC
    Format/Info : Advanced Video Codec
    Format profile : High@L4.1
    Format settings, CABAC : Yes
    Format settings, ReFrames : 9 frames
    Codec ID : V_MPEG4/ISO/AVC
    Duration : 1h 32mn
    Bit rate : 6 822 Kbps
    Width : 1 280 pixels
    Height : 690 pixels
    Display aspect ratio : 1.85:1
    Frame rate mode : Constant
    Frame rate : 25.000 fps
    Color space : YUV
    Chroma subsampling : 4:2:0
    Bit depth : 8 bits
    Scan type : Progressive
    Bits/(Pixel*Frame) : 0.309
    Stream size : 4.39 GiB (75%)
    Writing library : x264 core 148 r2638+53 bb29004 t_mod_Custom [8-bit@all X86_64]
    Encoding settings : cabac=1 / ref=9 / deblock=1:-3:-3 / analyse=0x3:0x133 / me=umh / subme=11 / psy=1 / fade_compensate=0.00 / psy_rd=1.10:0.05 / mixed_ref=1 / me_range=24 / chroma_me=1 / trellis=2 / 8x8dct=1 / cqm=0 / deadzone=21,11 / fast_pskip=0 / chroma_qp_offset=-3 / threads=6 / lookahead_threads=1 / sliced_threads=0 / nr=0 / decimate=1 / interlaced=0 / bluray_compat=0 / constrained_intra=0 / fgo=0 / bframes=8 / b_pyramid=2 / b_adapt=2 / b_bias=0 / direct=3 / weightb=1 / open_gop=0 / weightp=2 / keyint=250 / keyint_min=25 / scenecut=40 / intra_refresh=0 / rc_lookahead=60 / rc=crf / mbtree=0 / crf=17.0000 / qcomp=0.60 / qpmin=0:0:0 / qpmax=69:69:69 / qpstep=4 / vbv_maxrate=62500 / vbv_bufsize=78125 / crf_max=0.0 / nal_hrd=none / filler=0 / ip_ratio=1.40 / pb_ratio=1.30 / aq=1:0.65 / aq-sensitivity=10.00 / aq-factor=1.00:1.00:1.00 / aq2=0 / aq3=0
    Language : French
    Default : Yes
    Forced : No
    Color range : Limited
    Color primaries : BT.709
    Transfer characteristics : BT.709
    Matrix coefficients : BT.709
    Audio #1
    ID : 2
    Format : AC-3
    Format/Info : Audio Coding 3
    Mode extension : CM (complete main)
    Format settings, Endianness : Big
    Codec ID : A_AC3
    Duration : 1h 32mn
    Bit rate mode : Constant
    Bit rate : 192 Kbps
    Channel(s) : 2 channels
    Channel positions : Front: L R
    Sampling rate : 48.0 KHz
    Frame rate : 31.250 fps (1536 spf)
    Compression mode : Lossy
    Stream size : 126 MiB (2%)
    Title : Дубляж. М. Горького
    Language : Russian
    Default : Yes
    Forced : No
    Audio #2
    ID : 3
    Format : AC-3
    Format/Info : Audio Coding 3
    Mode extension : CM (complete main)
    Format settings, Endianness : Big
    Codec ID : A_AC3
    Duration : 1h 32mn
    Bit rate mode : Constant
    Bit rate : 192 Kbps
    Channel(s) : 2 channels
    Channel positions : Front: L R
    Sampling rate : 48.0 KHz
    Frame rate : 31.250 fps (1536 spf)
    Compression mode : Lossy
    Stream size : 126 MiB (2%)
    Title : MVO. Cinema Prestige
    Language : Russian
    Default : No
    Forced : No
    Audio #3
    ID : 4
    Format : AC-3
    Format/Info : Audio Coding 3
    Mode extension : CM (complete main)
    Format settings, Endianness : Big
    Codec ID : A_AC3
    Duration : 1h 32mn
    Bit rate mode : Constant
    Bit rate : 192 Kbps
    Channel(s) : 2 channels
    Channel positions : Front: L R
    Sampling rate : 48.0 KHz
    Frame rate : 31.250 fps (1536 spf)
    Compression mode : Lossy
    Stream size : 126 MiB (2%)
    Title : MVO. НТВ+
    Language : Russian
    Default : No
    Forced : No
    Audio #4
    ID : 5
    Format : AC-3
    Format/Info : Audio Coding 3
    Mode extension : CM (complete main)
    Format settings, Endianness : Big
    Codec ID : A_AC3
    Duration : 1h 32mn
    Bit rate mode : Constant
    Bit rate : 192 Kbps
    Channel(s) : 2 channels
    Channel positions : Front: L R
    Sampling rate : 48.0 KHz
    Frame rate : 31.250 fps (1536 spf)
    Compression mode : Lossy
    Stream size : 126 MiB (2%)
    Title : MVO. Twister
    Language : Russian
    Default : No
    Forced : No
    Audio #5
    ID : 6
    Format : DTS
    Format/Info : Digital Theater Systems
    Mode : 16
    Format settings, Endianness : Big
    Codec ID : A_DTS
    Duration : 1h 32mn
    Bit rate mode : Constant
    Bit rate : 1 509 Kbps
    Channel(s) : 2 channels
    Channel positions : Front: L R
    Sampling rate : 48.0 KHz
    Frame rate : 93.750 fps (512 spf)
    Bit depth : 24 bits
    Compression mode : Lossy
    Stream size : 994 MiB (17%)
    Language : French
    Default : No
    Forced : No
    Text #1
    ID : 7
    Format : UTF-8
    Codec ID : S_TEXT/UTF8
    Codec ID/Info : UTF-8 Plain Text
    Duration : 1h 29mn
    Bit rate : 72 bps
    Count of elements : 929
    Stream size : 47.6 KiB (0%)
    Language : Russian
    Default : No
    Forced : No
    Text #2
    ID : 8
    Format : UTF-8
    Codec ID : S_TEXT/UTF8
    Codec ID/Info : UTF-8 Plain Text
    Duration : 1h 29mn
    Bit rate : 72 bps
    Count of elements : 929
    Stream size : 47.1 KiB (0%)
    Language : Ukrainian
    Default : No
    Forced : No
    Text #3
    ID : 9
    Format : UTF-8
    Codec ID : S_TEXT/UTF8
    Codec ID/Info : UTF-8 Plain Text
    Duration : 1h 29mn
    Bit rate : 41 bps
    Count of elements : 929
    Stream size : 27.3 KiB (0%)
    Language : English
    Default : No
    Forced : No
    Menu
    00:00:00.000 : en:00:00:00.000
    00:09:10.840 : en:00:09:10.840
    00:18:43.480 : en:00:18:43.480
    00:24:02.000 : en:00:24:02.000
    00:30:31.560 : en:00:30:31.560
    00:38:46.400 : en:00:38:46.400
    00:50:38.520 : en:00:50:38.520
    01:01:39.680 : en:01:01:39.680
    01:10:20.160 : en:01:10:20.160
    01:16:31.600 : en:01:16:31.600
    01:21:40.760 : en:01:21:40.760
    01:30:11.480 : en:01:30:11.480
    Скачать .torrent

    Скачать торрент-файл бесплатно и на максимальной скорости!

    Как скачивать? · Что такое торрент? · Рейтинг и ограничения

    !ВНИМАНИЕ!
    Сайт не распространяет и не хранит электронные версии произведений, а занимается лишь лишь предоставлением доступа к создаваемому пользователями каталогу ссылок на торрент-файлы, которые содержат только списки хеш-сумм, убедительная просьба с жалобами обращаться напрямую к пользователю. Файлы для обмена на трекере предоставлены пользователями сайта, и администрация не несёт ответственности за их содержание. Просьба не заливать файлы, защищенные авторскими правами, а также файлы нелегального содержания!


    _________________
    [Профиль] [ЛС]
    Показать сообщения:    
    Ответить на тему

    Текущее время: Сегодня, в 08:09

    Часовой пояс: GMT + 2



    Вы не можете начинать темы
    Вы не можете отвечать на сообщения
    Вы не можете редактировать свои сообщения
    Вы не можете удалять свои сообщения
    Вы не можете голосовать в опросах
    Вы не можете прикреплять файлы к сообщениям
    Вы не можете скачивать файлы