Register  ·  Log in
Forgot password?

  • Палач / Виселица / Hangman (Адам Мэйсон / Adam Mason) [2015, Великобритания, Триллер, HDRip] VO (datynet)

    Reply to topic
    Author Message


    Post 18-Feb-2016 04:13



    Палач / HangmanСтрана: Великобритания
    Жанр: Триллер
    Год выпуска: 2015
    Продолжительность: 01:24:32
    Перевод: Одноголосый закадровый datynet; перевод: Куценко
    Cубтитры: нет
    Режиссер: Адам Мэйсон / Adam Mason
    В ролях: Джереми Систо, Кейт Эшфилд, Райан Симпкинс, Тай Симпкинс, Эрик Майкл Коул, Эми Смарт, Росс Патридж, Этан Харрис-Риггс, Винсент Вентреска, Бруно Александр
    Описание: Поле возвращения из отпуска семья Миллеров обнаруживает следы проникновения в их жилище, после чего они сразу же меняют все замки. Но дальнейшие события переворачивают жизнь этих людей с ног на голову...Фильм основан на реальных событиях.
    Доп. информация:

    Качество видео: HDRip
    Формат видео: AVI
    Видео: 720x400 (1.80:1), 23.976 fps, XviD MPEG-4 ~1926 kbps avg, 0.28 bit/pixel
    Аудио: 48 kHz, MPEG Layer 3, 2 ch, ~192.00 kbps avg


    Complete name : E:\Hangman.2016.HDRip.XviD.AC3-EVO\Hangman.2016.HDRip.avi
    Format : AVI
    Format/Info : Audio Video Interleave
    File size : 1.26 GiB
    Duration : 1h 24mn
    Overall bit rate : 2 128 Kbps
    Writing library : VirtualDub build 35576/release
    ID : 0
    Format : MPEG-4 Visual
    Format profile : Advanced Simple@L5
    Format settings, BVOP : 2
    Format settings, QPel : No
    Format settings, GMC : No warppoints
    Format settings, Matrix : Default (H.263)
    Codec ID : XVID
    Codec ID/Hint : XviD
    Duration : 1h 24mn
    Bit rate : 1 927 Kbps
    Width : 720 pixels
    Height : 400 pixels
    Display aspect ratio : 16:9
    Frame rate : 23.976 fps
    Color space : YUV
    Chroma subsampling : 4:2:0
    Bit depth : 8 bits
    Scan type : Progressive
    Compression mode : Lossy
    Bits/(Pixel*Frame) : 0.279
    Stream size : 1.14 GiB (91%)
    Writing library : XviD 66
    ID : 1
    Format : MPEG Audio
    Format version : Version 1
    Format profile : Layer 3
    Codec ID : 55
    Codec ID/Hint : MP3
    Duration : 1h 24mn
    Bit rate mode : Constant
    Bit rate : 192 Kbps
    Channel(s) : 2 channels
    Sampling rate : 48.0 KHz
    Compression mode : Lossy
    Stream size : 116 MiB (9%)
    Alignment : Split accross interleaves
    Interleave, duration : 42 ms (1.00 video frame)
    Interleave, preload duration : 500 ms


    Download .torrent

    Download free and at maximum speed!

    How to Download? · What is a torrent? · Ratings and Limitations

    The site does not extend and does not store electronic(digital) versions of products, and only gives access to a reference catalogue created by users on torrent-files which contain only lists of the hash-sums, the earnest entreaty, with complaints(abuse) to access directly to the user. Files for an exchange on tracker are given by users of a site, and the administration does not bear the responsibility for their maintenance. The request to not fill in the files protected by copyrights, and also files of the illegal maintenance!

    [Profile] [PM]
    Display posts from previous:    
    Reply to topic

    The time now is: Today 09:30

    All times are GMT + 3 Hours

    You cannot post new topics in this forum
    You cannot reply to topics in this forum
    You cannot edit your posts in this forum
    You cannot delete your posts in this forum
    You cannot vote in polls in this forum
    You cannot attach files in this forum
    You cannot download files in this forum