BitTorrentTracker PerecTracker.org
BitTorrentTracker PerecTracker.org
    
Регистрация  ·  Вход
 
 · 
Забыли пароль?

  • Ивиса / Ibiza (Шай Канот / Shay Kanot) [2015, Израиль, комедия, HDTVRip] Sub Rus, Heb + Original Heb

    Ответить на тему
     
    Автор Сообщение

    rechyn

    Создавать темы 18-Фев-2016 03:13

           

    [Цитировать]

    Ивиса / Ibiza
    Страна: Израиль
    Жанр: комедия
    Год выпуска: 2015
    Продолжительность: 01:26:06
    Перевод: Субтитры
    Cубтитры: русские (softsub, ASS), иврит (hardsub)
    Оригинальная аудиодорожка: иврит, английский
    Режиссер: Шай Канот / Shay Kanot
    В ролях: Маор Швицер, Офер Хайун, Дар Зозовский, Шани Атиас, Двир Бенедек, Маайан Блум,
    Описание: Ям невольно становится виновником тяжёлой травмы своего младшего брата. Чтобы достать деньги на дорогостоящую операцию, он вместе с двумя друзьями отправляется на остров Ивиса в Испании для участия в соревновании по сёрфингу, приз которого - золотой слиток стоимостью 150 000 долларов.
    Доп. информация:
    Сэмпл: http://www.mediafire.com/watch/jbvfiz3fop15id9/Sample_-_Ibiza_2015.avi
    Качество видео: HDTVRip
    Формат видео: AVI
    Видео: XviD 624х352 16:9 25 кадров/сек 995 Кбит/сек
    Аудио: MP3 48 КГц 2 канала 128 Кбит/сек
    Формат субтитров: softsub (ASS)

    Образец субтитров

    Dialogue: 0,0:24:08.68,0:24:12.07,Default,,0,0,0,,В течение трёх лет я был на плантации авокадо,
    Dialogue: 0,0:24:12.08,0:24:15.19,Default,,0,0,0,,Ждал, что командир придёт и заберёт меня.
    Dialogue: 0,0:24:15.20,0:24:18.99,Default,,0,0,0,,Однажды утром, проехал грузовик\Nколумбийских фермеров.
    Dialogue: 0,0:24:19.00,0:24:24.00,Default,,0,0,0,,Они сказали мне,\Nчто война закончилась ещё 23 месяца назад.
    Dialogue: 0,0:24:24.31,0:24:28.11,Default,,0,0,0,,Тогда я решил плыть на Ивису,
    Dialogue: 0,0:24:28.12,0:24:31.27,Default,,0,0,0,,чтобы веселиться, пока не забуду всё.
    Dialogue: 0,0:24:31.28,0:24:35.27,Default,,0,0,0,,В первую мою неделю здесь\Nзапутался с блендером.
    Dialogue: 0,0:24:35.28,0:24:37.99,Default,,0,0,0,,Потерял 2 кило крови.
    Dialogue: 0,0:24:38.00,0:24:43.19,Default,,0,0,0,,Я воображал, что это - сок авокадо\Nвыходит из моего тела.
    Dialogue: 0,0:24:43.96,0:24:46.07,Default,,0,0,0,,Смотрите, Ивиса - это не ваш дом.
    Dialogue: 0,0:24:46.08,0:24:48.55,Default,,0,0,0,,Безумие, наркотики... Это может быть слишком,
    Dialogue: 0,0:24:48.55,0:24:50.11,Default,,0,0,0,,если вы не сможете устоять.
    Dialogue: 0,0:24:50.12,0:24:55.12,Default,,0,0,0,,Нет, я... приехал, как турист, будь спокоен.
    Dialogue: 0,0:24:56.68,0:25:00.11,Default,,0,0,0,,Я собирался предложить тебе
    Dialogue: 0,0:25:00.12,0:25:02.35,Default,,0,0,0,,девочек, вечеринки,
    Dialogue: 0,0:25:02.36,0:25:04.55,Default,,0,0,0,,- стиль жизни на Ивисе.\N- Проверенный.
    Dialogue: 0,0:25:04.55,0:25:07.59,Default,,0,0,0,,Может быть даже работу,\Nесли ты стремишься к большим деньгам.
    Dialogue: 0,0:25:07.60,0:25:10.83,Default,,0,0,0,,По правде говоря, Джош,\Nя приехал сюда с ясной целью.
    Dialogue: 0,0:25:10.84,0:25:12.31,Default,,0,0,0,,Я приехал на сёрфинг.
    Dialogue: 0,0:25:12.31,0:25:16.75,Default,,0,0,0,,Девочки, наркотики, вечеринки...\Nвсё это не интересует меня.
    Dialogue: 0,0:25:16.76,0:25:20.39,Default,,0,0,0,,Не стоит недооценивать женщину.

    MediaInfo

    Общее
    Полное имя : Ibiza.avi
    Формат : AVI
    Формат/Информация : Audio Video Interleave
    Размер файла : 700 Мбайт
    Продолжительность : 1 ч. 26 м.
    Режим общего битрейта : Переменный
    Общий поток : 1136 Кбит/сек
    Программа кодирования : VirtualDubMod 1.5.10.2 (build 2540/release)
    Библиотека кодирования : VirtualDubMod build 2540/release
    Видео
    Идентификатор : 0
    Формат : MPEG-4 Visual
    Профиль формата : Advanced Simple@L5
    Параметр BVOP формата : 2
    Параметр QPel формата : Нет
    Параметр GMC формата : Без точки перехода
    Параметр матрицы формата : Default (H.263)
    Идентификатор кодека : XVID
    Идентификатор кодека/Подсказка : XviD
    Продолжительность : 1 ч. 26 м.
    Битрейт : 995 Кбит/сек
    Ширина : 624 пикселя
    Высота : 352 пикселя
    Соотношение сторон : 16:9
    Частота кадров : 25,000 кадров/сек
    Цветовое пространство : YUV
    Субдискретизация насыщенности : 4:2:0
    Битовая глубина : 8 бит
    Тип развёртки : Чересстрочная
    Порядок развёртки : Нижнее поле первое
    Метод сжатия : С потерями
    Бит/(Пиксели*Кадры) : 0.181
    Размер потока : 613 Мбайт (88%)
    Библиотека кодирования : XviD 64
    Аудио
    Идентификатор : 1
    Формат : MPEG Audio
    Версия формата : Version 1
    Профиль формата : Layer 3
    Режим : Joint stereo
    Расширение режима : MS Stereo
    Идентификатор кодека : 55
    Идентификатор кодека/Подсказка : MP3
    Продолжительность : 1 ч. 26 м.
    Вид битрейта : Переменный
    Битрейт : 128 Кбит/сек
    Каналы : 2 канала
    Частота : 48,0 КГц
    Метод сжатия : С потерями
    Размер потока : 78,9 Мбайт (11%)
    Выравнивание : Соединение по промежуткам
    Продолжительность промежутка : 24 мс. (0,60 видеокадр)
    Время предзагрузки промежутка : 482 мс.
    Библиотека кодирования : LAME3.90.
    Настройки программы : -m j -V 4 -q 2 -lowpass 17.6 --abr 128

    Скриншот c названием фильма

    Скриншоты




    Скачать .torrent

    Скачать торрент-файл бесплатно и на максимальной скорости!

    Как скачивать? · Что такое торрент? · Рейтинг и ограничения

    !ВНИМАНИЕ!
    Сайт не распространяет и не хранит электронные версии произведений, а занимается лишь лишь предоставлением доступа к создаваемому пользователями каталогу ссылок на торрент-файлы, которые содержат только списки хеш-сумм, убедительная просьба с жалобами обращаться напрямую к пользователю. Файлы для обмена на трекере предоставлены пользователями сайта, и администрация не несёт ответственности за их содержание. Просьба не заливать файлы, защищенные авторскими правами, а также файлы нелегального содержания!


    _________________
    [Профиль] [ЛС]
    Показать сообщения:    
    Ответить на тему

    Текущее время: Сегодня, в 09:09

    Часовой пояс: GMT + 2



    Вы не можете начинать темы
    Вы не можете отвечать на сообщения
    Вы не можете редактировать свои сообщения
    Вы не можете удалять свои сообщения
    Вы не можете голосовать в опросах
    Вы не можете прикреплять файлы к сообщениям
    Вы не можете скачивать файлы