BitTorrentTracker PerecTracker.org
BitTorrentTracker PerecTracker.org
    
Регистрация  ·  Вход
 
 · 
Забыли пароль?

  • Сабрина / Sabrina (Сидни Поллак / Sydney Pollack) [1995, США, Германия, комедия, мелодрама, WEB-DL 720p] MVO (ТВ Центр) + DVO (РТР) + MVO + AVO (В. Горчаков) + Original Eng + Sub Rus, Eng

    Ответить на тему
     
    Автор Сообщение

    Flirldrerve

    Создавать темы 17-Фев-2016 23:01

           

    [Цитировать]

    Сабрина / Sabrina
    Страна: США, Германия
    Жанр: Комедия, мелодрама
    Год выпуска: 1995
    Продолжительность: 02:07:12
    Перевод 1: Профессиональный (многоголосый закадровый) ТВ Центр
    Перевод 2: Профессиональный (двухголосый закадровый) РТР
    Перевод 3: Профессиональный (многоголосый закадровый)
    Перевод 4: Авторский (одноголосый закадровый) В. Горчаков
    Cубтитры: Русские, Английские
    Оригинальная аудиодорожка: Английский
    Режиссер: Сидни Поллак / Sydney Pollack
    В ролях: Харрисон Форд, Джулия Ормонд, Грег Киннер, Нэнси Марчанд, Джон Вуд, Ричард Кренна, Энджи Дикинсон, Лорен Холли, Дэна Айви, Мириам Колон
    Описание: Сабрина - дочь водителя, выросла в имении богатой Нью-Йоркской семьи, у которой работает её отец. Когда девушка возвращается из Европы, у нее складываются романтические отношения с младшим сыном хозяев Дэвидом, которого она давно любит и из-за которого, собственно, и уехала из Америки. Однако Дэвид должен жениться на другой, чтобы укрепить семейный бизнес - многомиллионным контрактом , который должен подписать отец невесты. В связи с этим, старший брат Дэвида Лайнес, хочет разлучить Сабрину и Дэвида. Он начинает ухаживать за Сабриной и скоро понимает, что влюбился в нее по настоящему.-Рейтинг
    -Сэмпл
    Тип релиза: WEB-DL 720p
    Контейнер: MKV
    Видео: 1276x720 (16:9), 23.976 fps, x264, ~4177 kbps
    Аудио 1: Russian: 48 kHz, AC3 Dolby Digital, 2/0 (L,R) ch, ~224 kbps | Многоголосый закадровый, ТВ Центр
    Аудио 2: Russian: 48 kHz, AC3 Dolby Digital, 2/0 (L,R) ch, ~224 kbps | Двухголосый закадровый, РТР
    Аудио 3: Russian: 48 kHz, AC3 Dolby Digital, 2/0 (L,R) ch, ~224 kbps | Многоголосый закадровый, MVO
    Аудио 4: Russian: 48 kHz, AC3 Dolby Digital, 2/0 (L,R) ch, ~224 kbps | Одноголосый закадровый, В. Горчаков
    Аудио 5: English: 48 kHz, AAC, 2/0 (L,R) ch, ~128 kbps
    Cубтитры: Русские, Английские
    Формат субтитров: softsub (SRT)

    Дополнительно

    Русские дорожки с этой раздачи, спасибо Gregsam.
    Синхронизация аудио и субтитров igrok2012.

    MediaInfo

    Общее
    Unique ID : 246971937624351820205994215503556444852 (0xB9CD10A474DF7B2D938C9A5D423F02B4)
    Complete name : E:\video_rutracker\Sabrina.1995.720p.WEB-DL.4xRus.Eng.Sub.mkv
    Format : Matroska
    Format version : Version 2
    File size : 4,51 Гбайт
    Duration : 2 ч. 7 м.
    Overall bit rate : 5074 Кбит/сек
    Encoded date : UTC 2016-02-14 15:51:46
    Writing application : mkvmerge v8.3.0 ('Over the Horizon') 64bit
    Writing library : libebml v1.3.1 + libmatroska v1.4.2
    Attachements : cover.jpg
    Видео
    ID : 1
    Format : AVC
    Format/Info : Advanced Video Codec
    Format profile : High@L3.1
    Format settings, CABAC : Нет
    Format settings, ReFrames : 2 кадра
    Codec ID : V_MPEG4/ISO/AVC
    Duration : 2 ч. 7 м.
    Width : 1276 пикселей
    Height : 720 пикселей
    Display aspect ratio : 16:9
    Frame rate mode : Постоянный
    Frame rate : 23,976 кадра/сек
    Color space : YUV
    Chroma subsampling : 4:2:0
    Bit depth : 8 бит
    Scan type : Прогрессивная
    Language : English
    Default : Да
    Forced : Нет
    Color range : Limited
    Color primaries : BT.709
    Transfer characteristics : BT.709
    Matrix coefficients : BT.709
    Аудио #1
    ID : 2
    Format : AC-3
    Format/Info : Audio Coding 3
    Mode extension : CM (complete main)
    Format settings, Endianness : Big
    Codec ID : A_AC3
    Duration : 2 ч. 7 м.
    Bit rate mode : Постоянный
    Bit rate : 224 Кбит/сек
    Channel(s) : 2 канала
    Channel positions : Front: L R
    Sampling rate : 48,0 КГц
    Frame rate : 31,250 кадров/сек (1536 spf)
    Compression mode : С потерями
    Stream size : 204 Мбайт (4%)
    Title : MVO, ТВ Центр
    Language : Russian
    Default : Да
    Forced : Нет
    Аудио #2
    ID : 3
    Format : AC-3
    Format/Info : Audio Coding 3
    Mode extension : CM (complete main)
    Format settings, Endianness : Big
    Codec ID : A_AC3
    Duration : 2 ч. 7 м.
    Bit rate mode : Постоянный
    Bit rate : 224 Кбит/сек
    Channel(s) : 2 канала
    Channel positions : Front: L R
    Sampling rate : 48,0 КГц
    Frame rate : 31,250 кадров/сек (1536 spf)
    Compression mode : С потерями
    Stream size : 204 Мбайт (4%)
    Title : DVO, РТР
    Language : Russian
    Default : Нет
    Forced : Нет
    Аудио #3
    ID : 4
    Format : AC-3
    Format/Info : Audio Coding 3
    Mode extension : CM (complete main)
    Format settings, Endianness : Big
    Codec ID : A_AC3
    Duration : 2 ч. 7 м.
    Bit rate mode : Постоянный
    Bit rate : 224 Кбит/сек
    Channel(s) : 2 канала
    Channel positions : Front: L R
    Sampling rate : 48,0 КГц
    Frame rate : 31,250 кадров/сек (1536 spf)
    Compression mode : С потерями
    Stream size : 204 Мбайт (4%)
    Title : MVO
    Language : Russian
    Default : Нет
    Forced : Нет
    Аудио #4
    ID : 5
    Format : AC-3
    Format/Info : Audio Coding 3
    Mode extension : CM (complete main)
    Format settings, Endianness : Big
    Codec ID : A_AC3
    Duration : 2 ч. 7 м.
    Bit rate mode : Постоянный
    Bit rate : 224 Кбит/сек
    Channel(s) : 2 канала
    Channel positions : Front: L R
    Sampling rate : 48,0 КГц
    Frame rate : 31,250 кадров/сек (1536 spf)
    Compression mode : С потерями
    Stream size : 204 Мбайт (4%)
    Title : AVO, В. Горчаков
    Language : Russian
    Default : Нет
    Forced : Нет
    Аудио #5
    ID : 6
    Format : AAC
    Format/Info : Advanced Audio Codec
    Format profile : LC
    Codec ID : A_AAC
    Duration : 2 ч. 7 м.
    Channel(s) : 2 канала
    Channel positions : Front: L R
    Sampling rate : 48,0 КГц
    Frame rate : 46,875 кадров/сек (1024 spf)
    Compression mode : С потерями
    Title : Original
    Language : English
    Default : Нет
    Forced : Нет
    Текст #1
    ID : 7
    Format : UTF-8
    Codec ID : S_TEXT/UTF8
    Codec ID/Info : UTF-8 Plain Text
    Language : Russian
    Default : Нет
    Forced : Нет
    Текст #2
    ID : 8
    Format : UTF-8
    Codec ID : S_TEXT/UTF8
    Codec ID/Info : UTF-8 Plain Text
    Language : English
    Default : Нет
    Forced : Нет
    Меню
    00:00:00.000 : en:Chapter 1
    00:15:01.000 : en:Chapter 2
    00:29:59.000 : en:Chapter 3
    00:45:20.000 : en:Chapter 4
    00:59:53.000 : en:Chapter 5
    01:15:07.000 : en:Chapter 6
    01:30:07.000 : en:Chapter 7
    01:45:17.000 : en:Chapter 8
    02:00:08.000 : en:Chapter 9

    Скриншоты


    Скачать .torrent

    Скачать торрент-файл бесплатно и на максимальной скорости!

    Как скачивать? · Что такое торрент? · Рейтинг и ограничения

    !ВНИМАНИЕ!
    Сайт не распространяет и не хранит электронные версии произведений, а занимается лишь лишь предоставлением доступа к создаваемому пользователями каталогу ссылок на торрент-файлы, которые содержат только списки хеш-сумм, убедительная просьба с жалобами обращаться напрямую к пользователю. Файлы для обмена на трекере предоставлены пользователями сайта, и администрация не несёт ответственности за их содержание. Просьба не заливать файлы, защищенные авторскими правами, а также файлы нелегального содержания!


    _________________
    [Профиль] [ЛС]
    Показать сообщения:    
    Ответить на тему

    Текущее время: Сегодня, в 06:11

    Часовой пояс: GMT + 2



    Вы не можете начинать темы
    Вы не можете отвечать на сообщения
    Вы не можете редактировать свои сообщения
    Вы не можете удалять свои сообщения
    Вы не можете голосовать в опросах
    Вы не можете прикреплять файлы к сообщениям
    Вы не можете скачивать файлы