BitTorrentTracker PerecTracker.org
BitTorrentTracker PerecTracker.org
    
Регистрация  ·  Вход
 
 · 
Забыли пароль?

  • Плачущий убийца / Crying Freeman (Кристоф Ганс / Christophe Gans) [1995, Канада, Франция, Япония, США, боевик, триллер, криминал, BDRip 720p] 2x DVO (R5, REN-TV) + MVO (Нота) + AVO (Гаврилов) + VO (Гаевский) + Ukr + Original Eng + Sub Rus, Eng

    Ответить на тему
     
    Автор Сообщение

    Flirldrerve

    Создавать темы 17-Фев-2016 23:01

           

    [Цитировать]

    Плачущий Убийца / Crying Freeman
    Страна: Канада, Франция, Япония, США
    Жанр: Боевик, триллер, криминал
    Год выпуска: 1995
    Продолжительность: 01:41:56
    Перевод 1: Профессиональный (двухголосый закадровый) R5
    Перевод 2: Профессиональный (многоголосый закадровый) Нота/Россия
    Перевод 3: Профессиональный (двухголосый закадровый) REN-TV
    Перевод 4: Авторский (одноголосый закадровый) А. Гаврилов
    Перевод 5: Одноголосый закадровый Е. Гаевский
    Cубтитры: Русские, Английские
    Оригинальная аудиодорожка: Английский
    Режиссер: Кристоф Ганс / Christophe Gans
    В ролях: Марк Дакаскос (Yo Hinomura / Freeman), Джули Кондра (Emu O'Hara), Рей Дон Чонг (Detective Forge), Байрон Манн (Koh), Масая Като (Ryuji Hanada), Чеки Карио (Detective Netah), Мако (Shudo Shimazaki), Кеван Охтци (Takeshi Shimazaki), Дэбби Подовски (Customs Agent), Мюррэй Лоури (Head Customs Agent)
    Описание: Молодого художника Йо похищают и «перепрограммируют» в «Освободителя» - изощренного элитного убийцу, обладающего безграничными, почти фантастическими возможностями, способного ликвидировать даже главарей японской якудзы, главных противников его повелителей, Сынов Дракона.
    Красавица Эму оказывается случайной свидетельницей одного из убийств, совершенных Йо. Традиция «убийц - освободителей» требует, чтобы она погибла от его руки. Вместо этого, они влюбляются друг в друга и начинают одиссею страсти и насилия.-Рейтинг
    -Сэмпл
    Тип релиза: BDRip 720p
    Контейнер: MKV
    Видео: 1280x534 (2,40:1), 23.976 fps, x264, ~8639 kbps, Encode by CRiSC
    Аудио 1: Russian: 48 kHz, DTS, 3/2 (L,C,R,l,r) + LFE ch, ~1509 kbps | Двухголосый закадровый, R5
    Аудио 2: Russian: 48 kHz, AC3 , 2/0 (L,R) ch, ~192 kbps | Многоголосый закадровый, Нота/Россия
    Аудио 3: Russian: 48 kHz, AC3 , 2/0 (L,R) ch, ~192 kbps | Двухголосый закадровый, REN-TV
    Аудио 4: Russian: 48 kHz, AC3 , 2/0 (L,R) ch, ~192 kbps | Одноголосый закадровый, А. Гаврилов
    Аудио 5: Russian: 48 kHz, DTS, 3/2 (L,C,R,l,r) + LFE ch, ~1509 kbps | Одноголосый закадровый, Е. Гаевский
    Аудио 6: Ukrainian: 48 kHz, AC3 , 2/0 (L,R) ch, ~192 kbps | Многоголосый закадровый, НТН
    Аудио 7: English: 48 kHz, DTS, 3/2 (L,C,R,l,r) + LFE ch, ~1509 kbps
    Субтитры: Русские, Английские (Forced, Full, SDH)
    Формат субтитров: softsub (SRT)

    Дополнительно

    Дорога №1 получена микшированием выделенных голосов переводчиков с центром декодированного DTS-HD MA оригинала. За них спасибо Kefan. Сборка Прагматик.
    Дорога №3 с этой раздачи. Спасибо JUSTKANT.
    Перевод Е. Гаевского доступен благодаря: zav25, DREADG, dikii, mv73, mihaildns, Pr0peLLer, будулайроманов, napaHouk. Работа со звуком DREADG .

    MediaInfo

    Общее
    Unique ID : 209621326595637807692471224748346752879 (0x9DB399573AD5F40182966D431044BF6F)
    Complete name : E:\video_rutracker\Crying.Freeman.1995.720p.BDRip.5xRus.Ukr.Eng.Sub.mkv
    Format : Matroska
    Format version : Version 2
    File size : 9,93 Гбайт
    Duration : 1 ч. 41 м.
    Overall bit rate : 13,9 Мбит/сек
    Movie name : igrok2012
    Encoded date : UTC 2016-02-15 16:35:47
    Writing application : mkvmerge v8.3.0 ('Over the Horizon') 64bit
    Writing library : libebml v1.3.1 + libmatroska v1.4.2
    Attachements : cover.jpg
    Видео
    ID : 1
    Format : AVC
    Format/Info : Advanced Video Codec
    Format profile : High@L4.1
    Format settings, CABAC : Да
    Format settings, ReFrames : 12 кадров
    Codec ID : V_MPEG4/ISO/AVC
    Duration : 1 ч. 41 м.
    Bit rate : 8366 Кбит/сек
    Width : 1280 пикселей
    Height : 534 пикселя
    Display aspect ratio : 2,40:1
    Frame rate mode : Постоянный
    Frame rate : 23,976 (24000/1001) кадра/сек
    Color space : YUV
    Chroma subsampling : 4:2:0
    Bit depth : 8 бит
    Scan type : Прогрессивная
    Bits/(Pixel*Frame) : 0.511
    Stream size : 5,96 Гбайт (60%)
    Title : Encode by CRiSC
    Writing library : x264 core 142 r2431kMod ac76440
    Encoding settings : cabac=1 / ref=12 / deblock=1:-3:-3 / analyse=0x3:0x133 / me=tesa / subme=10 / psy=1 / fade_compensate=0.00 / psy_rd=0.90:0.00 / mixed_ref=1 / me_range=16 / chroma_me=1 / trellis=2 / 8x8dct=1 / cqm=0 / deadzone=21,11 / fast_pskip=0 / chroma_qp_offset=-2 / threads=12 / lookahead_threads=2 / sliced_threads=0 / nr=0 / decimate=0 / interlaced=0 / bluray_compat=0 / constrained_intra=0 / fgo=0 / bframes=8 / b_pyramid=2 / b_adapt=2 / b_bias=0 / direct=3 / weightb=1 / open_gop=0 / weightp=2 / keyint=250 / keyint_min=23 / scenecut=40 / intra_refresh=0 / rc_lookahead=40 / rc=crf / mbtree=0 / crf=18.0000 / qcomp=0.75 / qpmin=0 / qpmax=69 / qpstep=4 / vbv_maxrate=50000 / vbv_bufsize=62500 / crf_max=0.0 / nal_hrd=none / filler=0 / ip_ratio=1.10 / pb_ratio=1.10 / aq=1:0.50
    Language : English
    Default : Да
    Forced : Нет
    Color range : Limited
    Color primaries : BT.709
    Transfer characteristics : BT.709
    Matrix coefficients : BT.709
    Аудио #1
    ID : 2
    Format : DTS
    Format/Info : Digital Theater Systems
    Mode : 16
    Format settings, Endianness : Big
    Codec ID : A_DTS
    Duration : 1 ч. 41 м.
    Bit rate mode : Постоянный
    Bit rate : 1509 Кбит/сек
    Channel(s) : 6 каналов
    Channel positions : Front: L C R, Side: L R, LFE
    Sampling rate : 48,0 КГц
    Frame rate : 93,750 кадра/сек (512 spf)
    Bit depth : 16 бит
    Compression mode : С потерями
    Stream size : 1,07 Гбайт (11%)
    Title : Двухголосый закадровый, R5
    Language : Russian
    Default : Да
    Forced : Нет
    Аудио #2
    ID : 3
    Format : AC-3
    Format/Info : Audio Coding 3
    Mode extension : CM (complete main)
    Format settings, Endianness : Big
    Codec ID : A_AC3
    Duration : 1 ч. 41 м.
    Bit rate mode : Постоянный
    Bit rate : 192 Кбит/сек
    Channel(s) : 2 канала
    Channel positions : Front: L R
    Sampling rate : 48,0 КГц
    Frame rate : 31,250 кадров/сек (1536 spf)
    Compression mode : С потерями
    Stream size : 140 Мбайт (1%)
    Title : Многоголосый закадровый, Нота/Россия
    Language : Russian
    Default : Нет
    Forced : Нет
    Аудио #3
    ID : 4
    Format : AC-3
    Format/Info : Audio Coding 3
    Mode extension : CM (complete main)
    Format settings, Endianness : Big
    Codec ID : A_AC3
    Duration : 1 ч. 41 м.
    Bit rate mode : Постоянный
    Bit rate : 192 Кбит/сек
    Channel(s) : 2 канала
    Channel positions : Front: L R
    Sampling rate : 48,0 КГц
    Frame rate : 31,250 кадров/сек (1536 spf)
    Compression mode : С потерями
    Stream size : 140 Мбайт (1%)
    Title : Двухголосый закадровый, REN-TV
    Language : Russian
    Default : Нет
    Forced : Нет
    Аудио #4
    ID : 5
    Format : AC-3
    Format/Info : Audio Coding 3
    Mode extension : CM (complete main)
    Format settings, Endianness : Big
    Codec ID : A_AC3
    Duration : 1 ч. 41 м.
    Bit rate mode : Постоянный
    Bit rate : 192 Кбит/сек
    Channel(s) : 2 канала
    Channel positions : Front: L R
    Sampling rate : 48,0 КГц
    Frame rate : 31,250 кадров/сек (1536 spf)
    Compression mode : С потерями
    Stream size : 140 Мбайт (1%)
    Title : Одноголосый закадровый, А.Гаврилов
    Language : Russian
    Default : Нет
    Forced : Нет
    Аудио #5
    ID : 6
    Format : DTS
    Format/Info : Digital Theater Systems
    Mode : 16
    Format settings, Endianness : Big
    Codec ID : A_DTS
    Duration : 1 ч. 41 м.
    Bit rate mode : Постоянный
    Bit rate : 1509 Кбит/сек
    Channel(s) : 6 каналов
    Channel positions : Front: L C R, Side: L R, LFE
    Sampling rate : 48,0 КГц
    Frame rate : 93,750 кадра/сек (512 spf)
    Bit depth : 16 бит
    Compression mode : С потерями
    Stream size : 1,07 Гбайт (11%)
    Title : Одноголосый закадровый, Е.Гаевский
    Language : Russian
    Default : Нет
    Forced : Нет
    Аудио #6
    ID : 7
    Format : AC-3
    Format/Info : Audio Coding 3
    Mode extension : CM (complete main)
    Format settings, Endianness : Big
    Codec ID : A_AC3
    Duration : 1 ч. 41 м.
    Bit rate mode : Постоянный
    Bit rate : 192 Кбит/сек
    Channel(s) : 2 канала
    Channel positions : Front: L R
    Sampling rate : 48,0 КГц
    Frame rate : 31,250 кадров/сек (1536 spf)
    Compression mode : С потерями
    Stream size : 140 Мбайт (1%)
    Title : Многоголосый закадровый, НТН
    Language : Ukrainian
    Default : Нет
    Forced : Нет
    Аудио #7
    ID : 8
    Format : DTS
    Format/Info : Digital Theater Systems
    Mode : 16
    Format settings, Endianness : Big
    Codec ID : A_DTS
    Duration : 1 ч. 41 м.
    Bit rate mode : Постоянный
    Bit rate : 1509 Кбит/сек
    Channel(s) : 6 каналов
    Channel positions : Front: L C R, Side: L R, LFE
    Sampling rate : 48,0 КГц
    Frame rate : 93,750 кадра/сек (512 spf)
    Bit depth : 16 бит
    Compression mode : С потерями
    Stream size : 1,07 Гбайт (11%)
    Title : Original
    Language : English
    Default : Нет
    Forced : Нет
    Текст #1
    ID : 9
    Format : UTF-8
    Codec ID : S_TEXT/UTF8
    Codec ID/Info : UTF-8 Plain Text
    Title : Full
    Language : Russian
    Default : Нет
    Forced : Нет
    Текст #2
    ID : 10
    Format : UTF-8
    Codec ID : S_TEXT/UTF8
    Codec ID/Info : UTF-8 Plain Text
    Title : Forced
    Language : English
    Default : Нет
    Forced : Нет
    Текст #3
    ID : 11
    Format : UTF-8
    Codec ID : S_TEXT/UTF8
    Codec ID/Info : UTF-8 Plain Text
    Title : Full
    Language : English
    Default : Нет
    Forced : Нет
    Текст #4
    ID : 12
    Format : UTF-8
    Codec ID : S_TEXT/UTF8
    Codec ID/Info : UTF-8 Plain Text
    Title : SDH
    Language : English
    Default : Нет
    Forced : Нет
    Меню
    00:00:00.000 : en:00:00:00.000
    00:03:34.965 : en:00:03:34.965
    00:10:11.236 : en:00:10:11.236
    00:11:53.087 : en:00:11:53.087
    00:15:56.414 : en:00:15:56.414
    00:20:16.090 : en:00:20:16.090
    00:22:51.245 : en:00:22:51.245
    00:26:30.714 : en:00:26:30.714
    00:30:58.023 : en:00:30:58.023
    00:33:44.397 : en:00:33:44.397
    00:40:29.594 : en:00:40:29.594
    00:45:50.581 : en:00:45:50.581
    00:48:46.966 : en:00:48:46.966
    00:50:47.294 : en:00:50:47.294
    00:53:30.290 : en:00:53:30.290
    00:59:04.416 : en:00:59:04.416
    01:01:08.373 : en:01:01:08.373
    01:06:21.144 : en:01:06:21.144
    01:07:48.064 : en:01:07:48.064
    01:11:23.154 : en:01:11:23.154
    01:14:47.650 : en:01:14:47.650
    01:20:24.945 : en:01:20:24.945
    01:25:44.598 : en:01:25:44.598
    01:35:17.003 : en:01:35:17.003

    Скриншоты


    Скачать .torrent

    Скачать торрент-файл бесплатно и на максимальной скорости!

    Как скачивать? · Что такое торрент? · Рейтинг и ограничения

    !ВНИМАНИЕ!
    Сайт не распространяет и не хранит электронные версии произведений, а занимается лишь лишь предоставлением доступа к создаваемому пользователями каталогу ссылок на торрент-файлы, которые содержат только списки хеш-сумм, убедительная просьба с жалобами обращаться напрямую к пользователю. Файлы для обмена на трекере предоставлены пользователями сайта, и администрация не несёт ответственности за их содержание. Просьба не заливать файлы, защищенные авторскими правами, а также файлы нелегального содержания!


    _________________
    [Профиль] [ЛС]
    Показать сообщения:    
    Ответить на тему

    Текущее время: Сегодня, в 08:10

    Часовой пояс: GMT + 2



    Вы не можете начинать темы
    Вы не можете отвечать на сообщения
    Вы не можете редактировать свои сообщения
    Вы не можете удалять свои сообщения
    Вы не можете голосовать в опросах
    Вы не можете прикреплять файлы к сообщениям
    Вы не можете скачивать файлы