Register  ·  Log in
Forgot password?

  • Контакт / The Encounter (Роберт Конуэй / Robert Conway) [2015, США, ужасы, фантастика, HDRip] VO (Васька Куролесов)

    Reply to topic
    Author Message


    Post 17-Feb-2016 07:13



    Контакт / The Encounter
    Страна: США
    Жанр: ужасы, фантастика
    Год выпуска: 2015
    Продолжительность: 01:20:13
    Перевод: Одноголосый закадровый Васька Куролесов по субтитрам Enigma
    Cубтитры: нет
    Оригинальная аудиодорожка: нет
    Режиссер: Роберт Конуэй / Robert Conway
    В ролях: Клинт Джеймс, Оуэн Конуэй, Меган Драст, Элиза Кишш, Полина Валлен, Луи Иаккарино, Дэн Хиггинс, Моника Энгессер, Пэт Кэй
    Описание: Рядом с городом в лесу упал метеорит. Окружающие даже не представляют какие ужасные события развернутся уже скоро...
    Качество видео: HDRip
    Формат видео: AVI
    Видео: XviD, 2166 Кбит/с, 720x400, 23.976 fps
    Аудио: AC-3, 2 ch, 256 Кбит/с, 48.0 KHz


    Complete name : G:\The.Encounter.2015_HDRip_KypoJIecoB.avi
    Format : AVI
    Format/Info : Audio Video Interleave
    File size : 1.36 GiB
    Duration : 1h 20mn
    Overall bit rate : 2 432 Kbps
    ID : 0
    Format : MPEG-4 Visual
    Format profile : Advanced Simple@L5
    Format settings, BVOP : 2
    Format settings, QPel : No
    Format settings, GMC : No warppoints
    Format settings, Matrix : Default (H.263)
    Codec ID : XVID
    Codec ID/Hint : XviD
    Duration : 1h 20mn
    Bit rate : 2 166 Kbps
    Width : 720 pixels
    Height : 400 pixels
    Display aspect ratio : 16:9
    Frame rate : 23.976 fps
    Color space : YUV
    Chroma subsampling : 4:2:0
    Bit depth : 8 bits
    Scan type : Progressive
    Compression mode : Lossy
    Bits/(Pixel*Frame) : 0.314
    Stream size : 1.21 GiB (89%)
    Writing library : XviD 67
    ID : 1
    Format : AC-3
    Format/Info : Audio Coding 3
    Mode extension : CM (complete main)
    Format settings, Endianness : Big
    Codec ID : 2000
    Duration : 1h 20mn
    Bit rate mode : Constant
    Bit rate : 256 Kbps
    Channel(s) : 2 channels
    Channel positions : Front: L R
    Sampling rate : 48.0 KHz
    Compression mode : Lossy
    Stream size : 147 MiB (11%)
    Alignment : Split accross interleaves
    Interleave, duration : 42 ms (1.00 video frame)
    Interleave, preload duratio : 500 ms

    Скриншот c названием фильма


    Download .torrent

    Download free and at maximum speed!

    How to Download? · What is a torrent? · Ratings and Limitations

    The site does not extend and does not store electronic(digital) versions of products, and only gives access to a reference catalogue created by users on torrent-files which contain only lists of the hash-sums, the earnest entreaty, with complaints(abuse) to access directly to the user. Files for an exchange on tracker are given by users of a site, and the administration does not bear the responsibility for their maintenance. The request to not fill in the files protected by copyrights, and also files of the illegal maintenance!

    [Profile] [PM]
    Display posts from previous:    
    Reply to topic

    The time now is: Today 13:28

    All times are GMT + 3 Hours

    You cannot post new topics in this forum
    You cannot reply to topics in this forum
    You cannot edit your posts in this forum
    You cannot delete your posts in this forum
    You cannot vote in polls in this forum
    You cannot attach files in this forum
    You cannot download files in this forum