BitTorrentTracker PerecTracker.org
BitTorrentTracker PerecTracker.org
    
Регистрация  ·  Вход
 
 · 
Забыли пароль?

  • Контакт / The Encounter (Роберт Конуэй / Robert Conway) [2015, США, ужасы, фантастика, HDRip] VO (Васька Куролесов)

    Ответить на тему
     
    Автор Сообщение

    rechyn

    Создавать темы 17-Фев-2016 06:13

           

    [Цитировать]

    Контакт / The Encounter
    Страна: США
    Жанр: ужасы, фантастика
    Год выпуска: 2015
    Продолжительность: 01:20:13
    Перевод: Одноголосый закадровый Васька Куролесов по субтитрам Enigma
    Cубтитры: нет
    Оригинальная аудиодорожка: нет
    Режиссер: Роберт Конуэй / Robert Conway
    В ролях: Клинт Джеймс, Оуэн Конуэй, Меган Драст, Элиза Кишш, Полина Валлен, Луи Иаккарино, Дэн Хиггинс, Моника Энгессер, Пэт Кэй
    Описание: Рядом с городом в лесу упал метеорит. Окружающие даже не представляют какие ужасные события развернутся уже скоро...
    Сэмпл: http://multi-up.com/1089333
    Качество видео: HDRip
    Формат видео: AVI
    Видео: XviD, 2166 Кбит/с, 720x400, 23.976 fps
    Аудио: AC-3, 2 ch, 256 Кбит/с, 48.0 KHz
    Релиз:

    MediaInfo

    General
    Complete name : G:\The.Encounter.2015_HDRip_KypoJIecoB.avi
    Format : AVI
    Format/Info : Audio Video Interleave
    File size : 1.36 GiB
    Duration : 1h 20mn
    Overall bit rate : 2 432 Kbps
    Video
    ID : 0
    Format : MPEG-4 Visual
    Format profile : Advanced Simple@L5
    Format settings, BVOP : 2
    Format settings, QPel : No
    Format settings, GMC : No warppoints
    Format settings, Matrix : Default (H.263)
    Codec ID : XVID
    Codec ID/Hint : XviD
    Duration : 1h 20mn
    Bit rate : 2 166 Kbps
    Width : 720 pixels
    Height : 400 pixels
    Display aspect ratio : 16:9
    Frame rate : 23.976 fps
    Color space : YUV
    Chroma subsampling : 4:2:0
    Bit depth : 8 bits
    Scan type : Progressive
    Compression mode : Lossy
    Bits/(Pixel*Frame) : 0.314
    Stream size : 1.21 GiB (89%)
    Writing library : XviD 67
    Audio
    ID : 1
    Format : AC-3
    Format/Info : Audio Coding 3
    Mode extension : CM (complete main)
    Format settings, Endianness : Big
    Codec ID : 2000
    Duration : 1h 20mn
    Bit rate mode : Constant
    Bit rate : 256 Kbps
    Channel(s) : 2 channels
    Channel positions : Front: L R
    Sampling rate : 48.0 KHz
    Compression mode : Lossy
    Stream size : 147 MiB (11%)
    Alignment : Split accross interleaves
    Interleave, duration : 42 ms (1.00 video frame)
    Interleave, preload duratio : 500 ms

    Скриншот c названием фильма

    Скриншоты

    Скачать .torrent

    Скачать торрент-файл бесплатно и на максимальной скорости!

    Как скачивать? · Что такое торрент? · Рейтинг и ограничения

    !ВНИМАНИЕ!
    Сайт не распространяет и не хранит электронные версии произведений, а занимается лишь лишь предоставлением доступа к создаваемому пользователями каталогу ссылок на торрент-файлы, которые содержат только списки хеш-сумм, убедительная просьба с жалобами обращаться напрямую к пользователю. Файлы для обмена на трекере предоставлены пользователями сайта, и администрация не несёт ответственности за их содержание. Просьба не заливать файлы, защищенные авторскими правами, а также файлы нелегального содержания!


    _________________
    [Профиль] [ЛС]
    Показать сообщения:    
    Ответить на тему

    Текущее время: Сегодня, в 14:53

    Часовой пояс: GMT + 2



    Вы не можете начинать темы
    Вы не можете отвечать на сообщения
    Вы не можете редактировать свои сообщения
    Вы не можете удалять свои сообщения
    Вы не можете голосовать в опросах
    Вы не можете прикреплять файлы к сообщениям
    Вы не можете скачивать файлы