BitTorrentTracker PerecTracker.org
BitTorrentTracker PerecTracker.org
    
Регистрация  ·  Вход
 
 · 
Забыли пароль?

  • Безумное свидание / Date Night (Шон Леви / Shawn Levy) [2010, США, комедия, мелодрама, криминал, HDTV 1080i] [Open Matte] MVO (1 канал)

    Ответить на тему
     
    Автор Сообщение

    Flirldrerve

    Создавать темы 17-Фев-2016 02:01

           

    [Цитировать]

    Безумное свидание / Date Night / Open Matte
    Страна: США
    Жанр: комедия, мелодрама, криминал
    Год выпуска: 2010
    Продолжительность: 01:22:02
    Перевод: Профессиональный (многоголосый закадровый) 1 канал
    Cубтитры: нет
    Оригинальная аудиодорожка: нет
    Режиссер: Шон Леви / Shawn Levy
    В ролях: Стив Карелл, Тина Фей, Марк Уолберг, Тараджи П. Хенсон, Джимми Симпсон, Коммон, Уильям Фихтнер, Лейтон Мистер, Кристен Уиг, Марк Руффало.
    Описание: Супруги Фил и Клэр Фостеры живут в Нью-Джерси, воспитывают двух очаровательных детей, однако их отношения зашли в глухой тупик, и их далеко нельзя назвать романтичными. Чтобы как-то разнообразить свою семейную жизнь, Фостеры решили отправиться на романтическое свидание и поужинать в ресторане. Однако свободных столиков не оказалось, и тогда супруги решили назваться чужими именами неявившихся Трипплхорнов, чтобы заполучить столик в ресторане. Во время трапезы к ним подошли двое мужчин и заявили, что новоявленные Трипплхорны должны их боссу кругленькую сумму денег. Приняв Фостеров за других, в настоящую погоню за супругами отправляются местные гангстеры и коррумпированные полисмены.
    Доп. информация: Запись с канала Первый HD. HDTV имеет иное наполнение кадра чем BD http://screenshotcomparison.com/comparison/161933
    Сэмпл: http://multi-up.com/1089177
    Тип релиза: HDTV 1080i
    Контейнер: TS
    Видео: AVC, 1920x1080 (16:9), 25.000 fps, 12.7 Mbps (0.245 bit/pixel)
    Аудио: MP2, 48.0 KHz, 2 ch, 192 Kbps, CBR (Russian)

    MediaInfo

    Общее
    Идентификатор : 3 (0x3)
    Полное имя : N:\Безумное свидание.ts
    Формат : MPEG-TS
    Размер файла : 7,77 Гбайт
    Продолжительность : 1 ч. 22 м.
    Режим общего битрейта : Переменный
    Общий поток : 13,6 Мбит/сек
    Видео
    Идентификатор : 2141 (0x85D)
    Идентификатор меню : 21004 (0x520C)
    Формат : AVC
    Формат/Информация : Advanced Video Codec
    Профиль формата : Main@L4
    Параметр CABAC формата : Да
    Параметр ReFrames формата : 3 кадра
    Идентификатор кодека : 27
    Продолжительность : 1 ч. 22 м.
    Битрейт : 12,7 Мбит/сек
    Ширина : 1920 пикселей
    Высота : 1080 пикселей
    Соотношение сторон : 16:9
    Частота кадров : 25,000 кадров/сек
    Стандарт вещания : Component
    Цветовое пространство : YUV
    Субдискретизация насыщенности : 4:2:0
    Битовая глубина : 8 бит
    Тип развёртки : Чересстрочная
    Метод сохранения типа развёртки : Раздельные поля
    Порядок развёртки : Верхнее поле первое
    Бит/(Пиксели*Кадры) : 0.245
    Размер потока : 7,28 Гбайт (94%)
    Цветовой диапазон : Limited
    Основные цвета : BT.709
    Характеристики трансфера : BT.709
    Коэффициенты матрицы : BT.709
    Аудио
    Идентификатор : 2142 (0x85E)
    Идентификатор меню : 21004 (0x520C)
    Формат : MPEG Audio
    Версия формата : Version 1
    Профиль формата : Layer 2
    Идентификатор кодека : 4
    Продолжительность : 1 ч. 22 м.
    Вид битрейта : Постоянный
    Битрейт : 192 Кбит/сек
    Каналы : 2 канала
    Частота : 48,0 КГц
    Метод сжатия : С потерями
    Задержка видео : -16 мс.
    Размер потока : 113 Мбайт (1%)
    Язык : Russian

    Скриншоты

    Скачать .torrent

    Скачать торрент-файл бесплатно и на максимальной скорости!

    Как скачивать? · Что такое торрент? · Рейтинг и ограничения

    !ВНИМАНИЕ!
    Сайт не распространяет и не хранит электронные версии произведений, а занимается лишь лишь предоставлением доступа к создаваемому пользователями каталогу ссылок на торрент-файлы, которые содержат только списки хеш-сумм, убедительная просьба с жалобами обращаться напрямую к пользователю. Файлы для обмена на трекере предоставлены пользователями сайта, и администрация не несёт ответственности за их содержание. Просьба не заливать файлы, защищенные авторскими правами, а также файлы нелегального содержания!


    _________________
    [Профиль] [ЛС]
    Показать сообщения:    
    Ответить на тему

    Текущее время: Сегодня, в 06:43

    Часовой пояс: GMT + 2



    Вы не можете начинать темы
    Вы не можете отвечать на сообщения
    Вы не можете редактировать свои сообщения
    Вы не можете удалять свои сообщения
    Вы не можете голосовать в опросах
    Вы не можете прикреплять файлы к сообщениям
    Вы не можете скачивать файлы