BitTorrentTracker PerecTracker.org
BitTorrentTracker PerecTracker.org
    
Регистрация  ·  Вход
 
 · 
Забыли пароль?

  • Экипаж (Александр Митта) [1979, фильм-катастрофа, мелодрама, HDTVRip]

    Ответить на тему
     
    Автор Сообщение

    rechyn

    Создавать темы 16-Фев-2016 17:39

           

    [Цитировать]

    Экипаж
    Жанр: фильм-катастрофа, мелодрама
    Год выпуска: 1979
    Продолжительность: 02:14:02
    Режиссёр: Александр Митта
    В ролях: Георгий Жжёнов, Анатолий Васильев, Леонид Филатов, Александра Яковлева, Ирина Акулова, Екатерина Васильева, Юрий Горобец, Александр Павлов, Галина Гладкова, Рома Монин (озвучание - Клара Румянова), Комаки Курихара, Елена Коренева, Владимир Иванов, Алексей Якубов, Антон Табаков, Ирина Савина, Лариса Барабанова, Владимир Маренков, Александр Пашутин, Александр Потапов, Клара Румянова, Иван Рыжов, Ирина Санпитер, Мария Скворцова, Леонид Чубаров, Герман Юшко
    Описание: СССР, конец 1970-х годов. Герои фильма — экипаж пассажирского самолёта "Ту-154", совершающий международные рейсы. Игорь Скворцов — бортинженер, меняет любовниц одну за другой. Последней в его донжуанском списке становится стюардесса Тамара - внучка старого друга командира экипажа, Андрея Васильевича Тимченко. Бывший член экипажа Валентин Ненароков, перешедший из большой авиации в малую, страдает от непрерывных скандалов, которые ему закатывает жена Алевтина. У самого Тимченко в семье тоже проблемы: дочь забеременела, но выходить замуж за отца ребёнка отказывается. После очередной ежегодной медкомиссии Тимченко узнаёт, что, вполне вероятно, его вскоре отстранят от полётов по состоянию здоровья. А тут еще экипажу предстоит сложный рейс за границу, в город нефтяников Бидри, где случилось землетрясение большой разрушительной силы...
    Доп. информация: Отличия от DVD - другая цветовая гамма и иное наполнение кадра
    Сравнение с DVD "Крупный план" http://perectracker.org/viewtopic.php?t=53360 -> http://screenshotcomparison.com/comparison/162045
    Сравнение с DVD "Ruscico" http://perectracker.org/viewtopic.php?t=4360570 -> http://screenshotcomparison.com/comparison/162046
    Сэмпл: http://multi-up.com/1089298
    Качество видео: HDTVRip
    Формат видео: AVI
    Видео: XviD / 1934 kbps / 704x400 / 25.000 fps
    Аудио: AC3 / 6 ch / 384 kbps / 48 kHz

    MediaInfo

    General
    Complete name : J:\Torrents\Ekipazh.1979.XviD.HDTVRip.ExKinoRay.avi
    Format : AVI
    Format/Info : Audio Video Interleave
    Format profile : OpenDML
    File size : 2.18 GiB
    Duration : 2h 14mn
    Overall bit rate : 2 330 Kbps
    Writing application : VirtualDubMod 1.5.10.3 | www.virtualdub-fr.org || (build 2550/release)
    Writing library : VirtualDubMod build 2550/release
    Video
    ID : 0
    Format : MPEG-4 Visual
    Format profile : Advanced Simple@L5
    Format settings, BVOP : 1
    Format settings, QPel : No
    Format settings, GMC : No warppoints
    Format settings, Matrix : Default (MPEG)
    Codec ID : XVID
    Codec ID/Hint : XviD
    Duration : 2h 14mn
    Bit rate : 1 934 Kbps
    Width : 704 pixels
    Height : 400 pixels
    Display aspect ratio : 16:9
    Frame rate : 25.000 fps
    Color space : YUV
    Chroma subsampling : 4:2:0
    Bit depth : 8 bits
    Scan type : Progressive
    Compression mode : Lossy
    Bits/(Pixel*Frame) : 0.275
    Stream size : 1.81 GiB (83%)
    Writing library : XviD 1.2.1 (UTC 2008-12-04)
    Audio
    ID : 1
    Format : AC-3
    Format/Info : Audio Coding 3
    Mode extension : CM (complete main)
    Format settings, Endianness : Big
    Codec ID : 2000
    Duration : 2h 14mn
    Bit rate mode : Constant
    Bit rate : 384 Kbps
    Channel(s) : 6 channels
    Channel positions : Front: L C R, Side: L R, LFE
    Sampling rate : 48.0 KHz
    Frame rate : 31.250 fps (1536 spf)
    Compression mode : Lossy
    Stream size : 368 MiB (16%)
    Alignment : Split accross interleaves
    Interleave, duration : 40 ms (1.00 video frame)
    Interleave, preload duratio : 500 ms

    Скриншот c названием фильма

    Скриншоты

    Скачать .torrent

    Скачать торрент-файл бесплатно и на максимальной скорости!

    Как скачивать? · Что такое торрент? · Рейтинг и ограничения

    !ВНИМАНИЕ!
    Сайт не распространяет и не хранит электронные версии произведений, а занимается лишь лишь предоставлением доступа к создаваемому пользователями каталогу ссылок на торрент-файлы, которые содержат только списки хеш-сумм, убедительная просьба с жалобами обращаться напрямую к пользователю. Файлы для обмена на трекере предоставлены пользователями сайта, и администрация не несёт ответственности за их содержание. Просьба не заливать файлы, защищенные авторскими правами, а также файлы нелегального содержания!


    _________________
    [Профиль] [ЛС]
    Показать сообщения:    
    Ответить на тему

    Текущее время: Сегодня, в 07:58

    Часовой пояс: GMT + 2



    Вы не можете начинать темы
    Вы не можете отвечать на сообщения
    Вы не можете редактировать свои сообщения
    Вы не можете удалять свои сообщения
    Вы не можете голосовать в опросах
    Вы не можете прикреплять файлы к сообщениям
    Вы не можете скачивать файлы